<?xml version="1.0" standalone="no"?>
<!DOCTYPE svg PUBLIC "-//W3C//DTD SVG 1.1//EN" "http://www.w3.org/Graphics/SVG/1.1/DTD/svg11.dtd" >
<svg xmlns="http://www.w3.org/2000/svg">
<metadata>Generated by IcoMoon</metadata>
<defs>
<font id="icomoon" horiz-adv-x="1024">
<font-face units-per-em="1024" ascent="960" descent="-64" />
<missing-glyph horiz-adv-x="1024" />
<glyph unicode="&#x20;" horiz-adv-x="512" d="" />
<glyph unicode="&#xe900;" glyph-name="ic-popular" d="M921.6 448c0 226.216-183.383 409.6-409.6 409.6s-409.6-183.384-409.6-409.6c0-226.217 183.384-409.6 409.6-409.6s409.6 183.383 409.6 409.6zM712.31 519.68c22.4-3.2 31.36-30.72 15.36-46.72l-78.080-76.16c-6.4-6.4-8.96-15.36-7.68-24.32l18.56-106.88c3.84-22.4-19.84-39.040-39.68-28.8l-96 50.56c-8.32 4.48-17.92 4.48-25.601 0l-96-50.56c-19.839-10.24-43.519 6.4-40.319 28.8l18.559 106.88c1.92 8.96-1.279 17.92-7.679 24.32l-77.441 76.16c-16 16-7.040 43.52 15.36 46.72l107.52 15.36c8.961 1.28 16.641 6.4 20.481 14.72l48 97.28c9.6 20.48 38.4 20.48 48.64 0l48-97.28c3.84-7.68 11.52-13.44 20.48-14.72l107.52-15.36z" />
<glyph unicode="&#xe901;" glyph-name="eye_hide" d="M6.986 469.484c62.133 81.455 136.789 152.543 221.187 210.618l131.441-131.441c-55.734-84.025-32.799-197.324 51.228-253.058 61.169-40.57 140.687-40.563 201.85 0.019l118.093-118.24c-67.117-36.922-142.192-56.998-218.777-58.515-277.948 0-495.88 295.062-505.024 307.642-9.3 12.815-9.3 30.161 0.002 42.974zM511.999 777.172c277.946 0 495.879-295.1 505.025-307.681 9.299-12.815 9.299-30.159 0-42.972-62.131-81.455-136.787-152.542-221.19-210.616l-131.437 131.438c19.866 29.818 30.464 64.851 30.464 100.684 0.16 100.83-81.444 182.699-182.272 182.862-36.022 0.058-71.258-10.543-101.269-30.466l-118.090 118.239c67.113 36.913 142.185 56.994 218.77 58.511zM795.84 215.782l144.314-144.205c14.291-14.278 14.298-37.44 0.019-51.731-14.285-14.291-37.44-14.298-51.731-0.019l-157.664 157.549c22.368 11.61 44.090 24.429 65.062 38.406zM83.826 876.152c14.28 14.291 37.441 14.298 51.732 0.020l157.661-157.516c-22.369-11.608-44.088-24.427-65.062-38.401l-144.313 144.167c-14.289 14.278-14.295 37.439-0.017 51.729zM411.329 600.414l253.075-253.080c-13.594-20.529-31.18-38.112-51.709-51.712l-253.077 253.041c13.607 20.531 31.19 38.129 51.712 51.751z" />
<glyph unicode="&#xe902;" glyph-name="hotline" horiz-adv-x="910" d="M206.163 547.681c-48.721 0-88.356-39.634-88.356-88.356v-239.54c0-48.72 39.634-88.354 88.356-88.354s88.355 39.634 88.355 88.354v239.54c0 48.721-39.634 88.356-88.355 88.356zM58.904 459.319c0 8.496 1.121 16.703 2.509 24.806-35.496-11.473-61.413-44.443-61.413-83.71v-121.733c0-39.27 25.918-72.238 61.413-83.712-1.389 8.107-2.509 16.31-2.509 24.809v239.54zM677.393 547.681c-48.72 0-88.354-39.634-88.354-88.356v-239.54c0-48.72 39.634-88.354 88.354-88.354 8.852 0 17.243 1.701 25.31 4.136-10.962-36.341-44.345-63.044-84.213-63.044h-93.782c-12.199 34.207-44.584 58.908-82.93 58.908-48.721 0-88.356-39.634-88.356-88.36 0-48.72 39.634-88.354 88.356-88.354 38.347 0 70.732 24.695 82.93 58.903h93.782c81.192 0 147.257 66.065 147.257 147.263v298.443c0 48.721-39.634 88.356-88.354 88.356zM822.141 484.125c1.388-8.103 2.509-16.311 2.509-24.806v-239.54c0-8.499-1.121-16.703-2.509-24.809 35.499 11.474 61.412 44.442 61.412 83.712v121.733c0 39.268-25.913 72.238-61.412 83.71zM441.778 960c-243.61 0-441.778-198.168-441.778-441.778v-0.752c17.547 13.285 37.85 23.006 60.253 27.358 13.765 198.698 179.395 356.267 381.525 356.267s367.757-157.569 381.524-356.265c22.403-4.353 42.706-14.076 60.257-27.359v0.75c0 243.61-198.172 441.778-441.78 441.778z" />
<glyph unicode="&#xe903;" glyph-name="ic_calendar" horiz-adv-x="1138" d="M726.693 400.179c0 12.576 11.827 22.765 26.414 22.765h92.166c14.569 0 26.396-10.189 26.396-22.765v-79.508c0-12.595-11.827-22.79-26.396-22.79h-92.166c-14.586 0-26.414 10.194-26.414 22.79v79.508zM496.431 400.179c0 12.576 11.825 22.765 26.385 22.765h92.176c14.569 0 26.396-10.189 26.396-22.765v-79.508c0-12.595-11.827-22.79-26.396-22.79h-92.176c-14.56 0-26.385 10.194-26.385 22.79v79.508zM266.028 400.179c0 12.576 11.825 22.765 26.396 22.765h92.165c14.588 0 26.411-10.189 26.411-22.765v-79.508c0-12.595-11.823-22.79-26.411-22.79h-92.165c-14.571 0-26.396 10.194-26.396 22.79v79.508zM726.693 201.432c0 12.595 11.827 22.778 26.414 22.778h92.166c14.569 0 26.396-10.183 26.396-22.778v-79.497c0-12.584-11.827-22.773-26.396-22.773h-92.166c-14.586 0-26.414 10.194-26.414 22.773v79.497zM496.431 201.432c0 12.595 11.825 22.778 26.385 22.778h92.176c14.569 0 26.396-10.183 26.396-22.778v-79.497c0-12.584-11.827-22.773-26.396-22.773h-92.176c-14.56 0-26.385 10.194-26.385 22.773v79.497zM266.028 201.432c0 12.595 11.825 22.778 26.385 22.778h92.176c14.588 0 26.411-10.183 26.411-22.778v-79.497c0-12.584-11.823-22.773-26.411-22.773h-92.176c-14.56 0-26.385 10.194-26.385 22.773v79.497zM101.273 842.251v-121.444c0-54.892 51.611-99.125 115.22-99.125h72.684c63.614 0 115.909 44.234 115.909 99.125v121.88h327.603v-121.88c0-54.892 52.292-99.125 115.9-99.125h72.698c63.607 0 115.217 44.234 115.217 99.125v121.444c55.592-1.446 101.274-41.136 101.274-89.922v-711.716c0-49.704-46.689-90.527-104.294-90.527h-929.188c-57.519 0-104.296 40.909-104.296 90.527v711.716c0 48.786 45.68 88.476 101.273 89.922zM135.033 84.929c0-21.476 20.185-38.901 45.089-38.901h779.52c24.906 0 45.090 17.425 45.090 38.901v367.63c0 21.488-20.184 38.914-45.090 38.914h-779.518c-24.904 0-45.089-17.426-45.089-38.914l-0.002-367.63zM921.594 686.802h-71.89c-21.823 0-39.515 15.244-39.515 34.072v199.091c0 18.83 17.692 34.084 39.515 34.084h71.89c21.828 0 39.515-15.254 39.515-34.084v-199.091c0-18.828-17.687-34.072-39.515-34.072zM290.097 686.802h-71.894c-21.808 0-39.501 15.244-39.501 34.072v199.091c-0.003 18.83 17.691 34.084 39.501 34.084h71.894c21.82 0 39.514-15.254 39.514-34.084v-199.091c0-18.828-17.694-34.072-39.514-34.072z" />
<glyph unicode="&#xe904;" glyph-name="ic_chuyenvi" horiz-adv-x="1084" d="M249.277 765.076l425.262 116.078-22.522 45.521c-14.734 29.588-50.673 41.807-80.261 27.073l-380.697-188.671h58.218zM806.563 877.805c-5.271 0-10.541-0.719-15.812-2.156l-405.015-110.567h497.254l-18.685 68.521c-7.192 26.713-31.389 44.203-57.742 44.203zM945.393 723.151h-885.377c-18.927 0-35.818-8.744-46.838-22.521-5.031-6.349-8.865-13.656-11.021-21.682-1.318-5.031-2.156-10.302-2.156-15.692v-667.357c0-33.063 26.833-59.898 59.896-59.898h885.377c33.063 0 59.898 26.835 59.898 59.898v167.111h-355.424c-56.18 0-101.821 45.64-101.821 101.822v133.207c0 27.552 11.020 52.587 28.87 70.915 15.812 16.293 37.014 27.314 60.735 30.069 3.951 0.478 8.023 0.719 12.095 0.719h355.545v163.515c0.12 33.063-26.714 59.896-59.778 59.896zM1047.215 442.474c-5.987 5.51-13.053 9.703-20.962 12.458-6.108 2.035-12.577 3.233-19.408 3.233h-357.099c-33.063 0-59.893-26.832-59.893-59.896v-133.325c0-33.063 26.83-59.898 59.893-59.898h357.099c6.831 0 13.3 1.199 19.408 3.235 7.909 2.638 14.974 6.945 20.962 12.457 11.981 10.903 19.528 26.714 19.528 44.207v133.325c0 17.491-7.547 33.305-19.528 44.204zM774.813 319.687c0-16.529-13.42-29.949-29.949-29.949h-19.884c-16.535 0-29.949 13.42-29.949 29.949v19.884c0 9.583 4.433 18.092 11.499 23.483 5.15 3.953 11.499 6.467 18.45 6.467h19.884c16.529 0 29.949-13.416 29.949-29.951v-19.884z" />
<glyph unicode="&#xe905;" glyph-name="ic_close" d="M1024 105.708l-169.708-169.708-342.292 342.292-342.295-342.292-169.705 169.708 342.296 342.292-342.296 342.295 169.705 169.705 342.295-342.293 342.292 342.293 169.708-169.705-342.298-342.295 342.298-342.292z" />
<glyph unicode="&#xe906;" d="M1024 448c0-282.77-229.23-512-512-512s-512 229.23-512 512c0 282.77 229.23 512 512 512s512-229.23 512-512z" />
<glyph unicode="&#xe907;" glyph-name="ic-provider-all" d="M718.771 418.462c-97.818 0-177.237-79.42-177.237-177.233 0-97.818 79.42-177.237 177.237-177.237 97.813 0 177.233 79.42 177.233 177.237 0 97.813-79.42 177.233-177.233 177.233zM482.249 388.924c0 16.316-13.222 29.538-29.538 29.538h-236.312c-23.499 0-46.043-9.34-62.661-25.958-16.617-16.614-25.957-39.159-25.957-62.66v-177.233c0-23.501 9.339-46.042 25.957-62.66s39.162-25.958 62.661-25.958h177.234c23.499 0 46.043 9.34 62.662 25.958 16.614 16.619 25.954 39.159 25.954 62.66 0 86.208 0 236.314 0 236.314zM896.004 743.391c0 23.499-9.34 46.043-25.958 62.661-16.614 16.617-39.159 25.956-62.66 25.956-51.477 0-125.756 0-177.233 0-23.501 0-46.042-9.339-62.66-25.956s-25.958-39.162-25.958-62.661v-236.31c0-16.316 13.227-29.542 29.542-29.542h236.309c23.501 0 46.046 9.34 62.66 25.958 16.619 16.619 25.958 39.161 25.958 62.66v177.234zM482.249 743.391c0 23.499-9.34 46.043-25.954 62.661-16.619 16.617-39.163 25.956-62.662 25.956-51.478 0-125.756 0-177.234 0-23.499 0-46.043-9.339-62.661-25.956s-25.957-39.162-25.957-62.661v-177.234c0-23.499 9.339-46.041 25.957-62.66s39.162-25.958 62.661-25.958h236.312c16.316 0 29.538 13.227 29.538 29.542v236.31z" />
<glyph unicode="&#xe908;" glyph-name="ic-b52" d="M196.041 367.851c7.581 29.513 15.107 58.825 22.641 88.132 10.637 41.485 21.285 82.973 31.943 124.462 0.726 2.864 1.976 3.473 4.631 3.427 16.705-0.294 33.417-0.463 50.122-0.625 18.526-0.17 37.035-0.316 55.526-0.44 1.544 0 3.088-0.471 4.631-0.232 7.249 1.166 12.266-2.462 17.083-7.21 6.129-6.044 12.698-11.633 18.866-17.631 1.274-1.243 2.455-3.528 2.316-5.172-1.436-13.431-3.088-26.84-4.94-40.212-1.112-7.889-2.509-15.77-4.393-23.505-0.656-2.701-2.771-5.363-4.894-7.309-2.771-2.547-6.284-4.275-9.348-6.532-4.439-3.247-4.5-4.629-0.772-8.367 3.041-3.089 6.878-5.675 8.885-9.301 1.606-2.901 1.644-7.117 1.235-10.607-1.699-14.665-3.744-29.239-5.844-43.831-1.297-9.015-3.088-17.971-4.369-27.017-1.050-7.309-1.675-14.665-2.548-22.007-0.509-4.292-0.278-8.956-1.961-12.745s-4.972-7.104-8.175-9.929c-8.754-7.718-18.025-14.861-26.686-22.686-3.953-3.575-7.943-4.407-12.93-3.767-3.736 0.486-7.581 0.209-11.378 0.171-2.825 0-5.651-0.388-8.492-0.316-12.065 0.299-24.138 1.015-36.204 1.011-31.981 0-63.955-0.333-95.929-0.521-4.863 0-9.734 0-14.597 0-3.752 0-5.079 1.894-4.338 5.406 1.366 6.421 2.563 12.898 4.276 19.23 2.856 10.56 6.029 21.035 9.14 31.526 1.42 4.783 3.791 6.545 8.7 6.592 5.774 0.047 11.556 0.004 17.801 0.004zM325.912 440.414c-1.319 0.299-2.658 0.499-4.006 0.602-13.946 0.311-27.892 0.567-41.839 0.772-1.945 0-3.265-0.593-3.597-3.017-1.204-8.777-2.354-17.587-4.13-26.249-2.764-13.487-5.828-26.91-9.194-40.269-0.903-3.567 0.409-3.652 3.011-3.644 14.505 0 29.017 0.115 43.514-0.073 3.273 0 4.223 1.493 4.632 4.186 1.544 9.613 3.087 19.23 4.716 28.826 2.215 12.791 4.539 25.587 6.886 38.835l0.008 0.030zM290.665 496.418h43.553l9.109 38.659h-46.51c-2.038-12.82-4.052-25.441-6.16-38.689l0.008 0.030zM493.739 533.681v-46.099c0.772-0.055 1.847-0.196 2.948-0.196 14.135 0 28.279-0.081 42.419 0 6.545 0.055 13.124 0.179 19.622 0.819 6.857 0.674 12.028-2.035 16.93-6.413 8.614-7.723 17.574-15.002 26.121-22.758 1.545-1.391 2.47-4.207 2.47-6.362 0-16.064-0.431-32.128-0.452-48.183 0-20.949-0.188-41.907 0.499-62.835 0.269-8.269-3.243-13.739-8.661-18.961-3.017-2.91-5.564-6.298-8.546-9.263-5.103-5.077-10.219-9.169-18.526-9.084-32.636 0.307-65.276-0.171-97.911-0.294-7.556 0-15.309-0.811-22.588 0.674-4.467 0.9-8.29 5.316-12.228 8.38-2.155 1.685-3.635 4.378-5.956 5.645-4.943 2.692-7.613 7.27-9.945 11.793-1.544 2.944-1.59 6.95-1.405 10.398 0.448 8.145 1.421 16.26 2.208 24.38 0.926 9.51 1.544 19.059 2.933 28.51 0.849 5.909 2.385 6.575 8.308 6.507 8.341-0.102 16.687-0.102 25.033-0.124 7.927 0 15.846 0.115 23.77-0.077 5.764-0.141 6.336-0.875 6.281-6.485-0.068-6.532-0.277-13.060-0.337-19.584 0-1.762 0.269-3.511 0.431-5.513 16.055 0 31.851-0.038 47.646 0.115 0.811 0 2.313 1.66 2.313 2.556 0.149 13.897 0.209 27.789 0.047 41.685-0.077 6.123-0.708 12.241-1.101 18.633-0.508 0.145-1.024 0.239-1.545 0.282-15.812 0.277-31.65 0.162-47.407 0.964-6.686 0.333-11.494-1.869-15.893-6.353-2.18-2.351-4.604-4.463-7.232-6.302-1.276-0.832-3.959-1.212-4.996-0.439-9.732 7.258-19.298 14.767-28.779 22.34-0.538 0.474-0.977 1.054-1.284 1.698-0.311 0.649-0.482 1.353-0.512 2.069 0.619 12.894 1.357 25.775 2.223 38.652 0.7 10.436 1.545 20.843 2.453 31.279 0.913 10.436 1.971 20.842 2.842 31.317 0.687 8.167 1.173 16.349 1.792 24.517 0.073 1.917 0.329 3.822 0.772 5.689 0.9 3.296 2.594 5.133 6.69 5.118 47.437-0.17 94.874-0.108 142.306-0.108 7.774 0 9.907-2.154 9.911-10.035 0-9.897 0-19.793 0-29.689 0-4.94-2.893-8.036-7.817-8.098-21.717-0.294-43.435-0.551-65.152-0.772-9.984-0.070-19.972 0.008-30.694 0.008zM742.101 487.3c-1.937 11.58-3.81 22.626-5.572 33.66-0.337 2.039-0.41 4.117-0.209 6.174 0.311 3.089-1.071 4.233-3.857 4.237h-38.413c0.572-5.333 1.22-9.715 1.451-14.118 0.209-4.083 0-8.188-0.098-12.288-0.081-3.166-1.762-4.523-4.949-4.471-10.893 0.179-21.794 0.32-32.691 0.286-3.691 0-7.381-0.593-11.081-0.849-10.295-0.717-11.814 2.534-12.928 11.759-1.318 10.914-2.061 21.907-3.051 32.861-0.525 5.843 0.333 10.761 5.577 14.867 7.863 6.176 14.929 13.339 22.601 19.77 2.116 1.768 4.745 2.817 7.497 2.995 28.015 0.463 56.030 0.72 84.041 0.772 3.546-0.063 6.993-1.172 9.911-3.188 8.947-6.407 17.655-13.185 26.039-20.31 2.876-2.459 4.988-5.69 6.089-9.31 3.017-11.162 5.495-22.479 7.782-33.819 3.273-16.277 6.076-32.661 9.331-48.947 1.173-5.867-2.769-9.263-5.534-13.171-4.51-6.327-9.442-12.348-14.357-18.385-4.356-5.333-10.671-5.589-16.798-5.619-15.804-0.094-31.65 0.060-47.42 0.107-6.229 0-12.454 0-19.183 0 2.633-20.595 5.227-40.913 7.881-61.709h4.471c34.961 0 69.922-0.047 104.883 0.038 6.174 0 6.946-0.533 8.9-6.733 2.569-8.034 3.959-16.448 5.687-24.7 1.545-7.552 3.004-15.138 4.331-22.741 0.405-2.27 0.491-4.587 0.256-6.878-0.333-3.089-2.974-3.669-5.406-3.708-13.99-0.226-27.989-0.371-41.993-0.439-19.298-0.068-38.537-0.107-57.796 0-8.341 0.064-16.678 0.619-25.015 0.887-6.912 0.235-13.824 0.414-20.736 0.55-6.886 0.137-13.781 0.26-20.663 0.23-4.634 0-9.212-0.269-13.811-0.555-2.594-0.162-3.861 1.186-4.186 3.443-0.653 5.056-1.109 10.15-1.604 15.228-0.99 10.035-1.993 20.070-2.91 30.059-0.64 6.997-1.075 14.020-1.745 21.013-1.182 12.305-2.526 24.593-3.712 36.89-0.879 9.033-1.63 18.074-2.441 27.11-0.269 3.051-0.26 6.178-0.87 9.143-1.045 5.086 0.29 8.789 4.305 12.348 7.202 6.345 14.042 13.086 20.497 20.19 5.589 6.174 12.727 6.468 19.921 6.566 16.986 0.23 33.967 0.047 50.901 0.111 2.236 0.102 4.467 0.32 6.677 0.644zM216.197 528.154l-141.72 40.226c-13.408 3.805-26.833 7.534-40.195 11.494-1.887 0.576-3.535 1.753-4.693 3.35-9.618 14.667-19.005 29.504-28.562 44.194-1.351 2.068-1.359 3.435 0 5.457 2.802 4.253 5.118 8.808 7.99 13.030 0.478 0.538 1.078 0.955 1.749 1.215s1.395 0.357 2.111 0.282c67.076-17.091 134.125-34.261 201.144-51.511 4.555-1.166 9.055-2.64 13.671-3.435 2.647-0.463 2.841-1.691 2.385-3.674-3.726-16.303-7.467-32.604-11.224-48.902-0.873-3.829-1.737-7.664-2.656-11.726zM811.145 531.255c-4.207 21.723-16.435 38.104-32.947 52.64l18.569 5.334c69.773 20.009 139.546 40.025 209.327 60.049 2.607 0.772 4.284 0.672 5.965-1.999 3.204-5.071 6.946-9.811 10.492-14.667 1.984-2.717 1.911-5.28 0-8.082-9.263-13.524-18.372-27.126-27.635-40.635-0.875-1.38-2.172-2.442-3.699-3.026-59.81-16.55-119.659-32.993-180.070-49.614zM41.283 557.634l171.27-46.124c-3.018-13.184-5.99-26.146-9.039-39.428-11.664 2.313-23.058 4.553-34.413 6.946-25.474 5.321-50.994 10.654-76.422 16.209-2.263 0.593-4.248 1.958-5.612 3.861-6.229 9.263-11.803 18.935-18.256 28.006-4.084 5.666-9.178 10.652-14.034 15.724-4.554 4.794-9.394 9.309-14.111 13.949l0.618 0.857zM980.092 557.325c-6.4-7.063-12.898-13.64-18.679-20.796-5.295-6.554-9.89-13.696-14.669-20.659-3.55-5.18-6.746-10.603-10.419-15.693-1.25-1.681-3.034-2.889-5.056-3.435-34.462-7.403-68.949-14.665-103.441-21.914-1.22-0.256-2.423-0.627-4.036-1.041-1.6 5.039-3.319 9.963-4.71 14.98-1.907 6.895-3.52 13.897-5.359 20.783-0.768 2.884-0.354 4.254 3.089 4.971 7.565 1.545 14.993 3.857 22.473 5.798 19.947 5.257 39.91 10.458 59.84 15.769 16.35 4.346 32.67 8.808 49.003 13.224 10.155 2.748 20.305 5.488 30.451 8.221 0.512 0.003 1.024-0.068 1.515-0.209zM872.841 421.457l10.961-16.623c-6.178-0.491-11.729-1.003-17.31-1.374-9.075-0.606-18.172-1.003-27.238-1.728-6.477-0.516-12.932-1.327-19.371-2.193-5.163-0.7-6.089-0.201-7.172 4.873-1.28 6.076-2.871 12.113-3.639 18.249-0.247 2.743 0.457 5.487 1.988 7.774 5.717 7.834 10.278 16.439 13.555 25.566 0.41 1.165 2.249 2.317 3.575 2.573 10.453 1.766 20.941 3.264 31.403 4.924 13.739 2.176 27.473 4.454 41.212 6.639 12.352 1.958 24.657 3.857 37.427 5.363-18.931-18.095-30.106-41.574-44.651-63.027l-20.288 9.643c-0.154-0.218-0.307-0.435-0.452-0.657zM137.443 405.5l12.282 16.913c-8.931-0.542-13.895-7.458-21.097-9.719l-43.182 63.471 114.911-18.688-13.023-57.417-49.891 5.44z" />
<glyph unicode="&#xe909;" glyph-name="ic-evolution" d="M739.136 715.704c-121.438 160.231-342.588 205.424-525.792 107.596 71.597-161.154 125.255-350.31 478.117-361.378 41.417-1.301 86.899-0.179 137.067 3.759-7.219 101.060-40.111 184.998-89.391 250.023zM674.069 433.442c-212.335-10.5-312.044-87.919-374.311-183.394-36.641-56.175-60.342-118.592-86.425-177.297 257.557-137.523 590.174 7.501 615.185 357.645-57.289 4.493-108.484 5.316-154.449 3.046z" />
<glyph unicode="&#xe90a;" glyph-name="ic_history" d="M895.38 788.044l-127.831-127.834c42.117-50.446 69.576-113.52 75.796-182.632h180.634c-6.636 115.628-51.528 224.012-128.599 310.466zM512.445 960c-136.878 0-265.564-53.304-362.354-150.094-96.788-96.788-150.092-225.474-150.092-362.352 0-136.883 53.304-265.569 150.092-362.358 89.676-89.677 206.742-141.988 332.33-149.197v180.634c-169.206 15.232-302.264 157.819-302.264 330.921 0 183.223 149.066 332.287 332.287 332.287 80.824 0 154.993-29.020 212.659-77.17l127.831 127.834c-93.901 83.706-213.668 129.494-340.49 129.494zM843.341 417.531c-14.336-159.314-141.583-286.556-300.892-300.892v-180.634c125.588 7.209 242.652 59.52 332.329 149.197s141.988 206.74 149.197 332.329h-180.634zM527.355 477.572h-29.806c-27.83 0-50.472 22.642-50.472 50.472s22.64 50.472 50.472 50.472h29.806c27.827 0 50.468-22.642 50.468-50.472h60.052c0 55.81-41.59 102.064-95.401 109.464v61.186h-60.049v-61.186c-53.812-7.4-95.4-53.652-95.4-109.464 0-60.944 49.582-110.523 110.524-110.523h29.806c27.827 0 50.468-22.641 50.468-50.473s-22.641-50.473-50.468-50.473h-29.806c-27.83 0-50.472 22.641-50.472 50.473h-60.052c0-55.808 41.59-102.062 95.4-109.466v-61.184h60.049v61.184c53.816 7.404 95.401 53.652 95.401 109.466 0 60.943-49.577 110.524-110.52 110.524z" />
<glyph unicode="&#xe90b;" glyph-name="ic_history_wager" d="M515.087 960c-1.035 0-2.052-0.068-3.087-0.085-0.034 0-0.068 0-0.102 0h-0.017c-1 0-1.967 0.068-2.968 0.068-280.614 0-508.913-228.298-508.913-508.912s228.298-508.914 508.913-508.914c1.035 0 2.052 0.070 3.087 0.083 1.035 0 2.052-0.083 3.087-0.083 280.612 0 508.913 228.301 508.913 508.914s-228.301 508.929-508.913 508.929zM404.687-10.816l43.478 18.048-71.027 198.579c5.548 0.589 10.721 3.763 13.402 9.126l7.583 15.181c4.19 8.378 0.797 18.573-7.583 22.765-8.38 4.205-18.558 0.8-22.765-7.584l-7.583-15.181c-2.765-5.517-1.968-11.686 1.103-16.538l-220.122-0.090 2.375-57.83c-60.628 76.102-98.441 171.1-102.919 274.663l170.452 103.513 7.549-3.24c2.188-0.933 4.461-1.391 6.7-1.391 6.582 0 12.842 3.868 15.59 10.28 3.699 8.601-0.305 18.593-8.889 22.273l-6.887 2.952-28.72 193.726-48.448-6.344c51.756 63.004 119.407 112.402 196.712 142.224l-23.495-33.757 176.932-113.42v-7.684c0-9.364 7.583-16.964 16.964-16.964s16.964 7.6 16.964 16.964v8.584l158.931 121.528-19.456 27.821c80.224-29.313 150.4-79.679 203.802-144.362l-41.574 5.445-28.723-193.726-6.886-2.952c-8.602-3.681-12.589-13.672-8.89-22.273 2.752-6.429 9.011-10.28 15.59-10.28 2.24 0 4.512 0.441 6.701 1.391l7.552 3.24 164.378-99.832c-3.597-101.24-38.97-194.487-96.506-270.045l2.035 49.549-203.162 0.070c3.072 4.851 3.872 11.027 1.101 16.538l-7.578 15.181c-4.192 8.397-14.387 11.795-22.765 7.584-8.384-4.186-11.776-14.381-7.584-22.765l7.584-15.181c2.726-5.446 8.006-8.634 13.651-9.158l-89.482-198.022 42.545-17.658c-35.692-8.858-72.961-13.69-111.299-13.926-36.931 0.218-72.843 4.73-107.33 12.979zM626.24 275.661c2.986-5.952 8.957-9.382 15.2-9.382 2.547 0 5.139 0.576 7.565 1.786 8.378 4.186 11.776 14.381 7.584 22.765l-4.448 8.89 69.555 208.668-202.294 147.126c7.227 1.951 12.655 8.261 12.655 16.099v16.964c0 9.364-7.583 16.964-16.963 16.964s-16.964-7.6-16.964-16.964v-16.964c0-7.837 5.428-14.148 12.655-16.099l-202.785-147.466 82.987-216.342-0.441-0.877c-4.19-8.384-0.797-18.579 7.583-22.765 2.442-1.222 5.021-1.786 7.565-1.786 6.226 0 12.214 3.43 15.2 9.382l2.9 5.798h199.562l2.884-5.798zM294.398 535.053l-15.59 6.684c-8.635 3.699-18.609-0.288-22.273-8.906-3.699-8.601 0.305-18.593 8.889-22.273l15.59-6.684c2.188-0.933 4.461-1.391 6.7-1.391 6.582 0 12.842 3.868 15.59 10.28 3.681 8.618-0.322 18.593-8.906 22.291zM742.515 502.496c2.24 0 4.512 0.441 6.701 1.391l15.59 6.684c8.602 3.681 12.589 13.673 8.89 22.273-3.699 8.635-13.67 12.621-22.272 8.906l-15.59-6.684c-8.602-3.699-12.589-13.673-8.89-22.274 2.733-6.446 8.992-10.297 15.571-10.297z" />
<glyph unicode="&#xe90c;" d="M1024 448c0-282.77-229.23-512-512-512s-512 229.23-512 512c0 282.77 229.23 512 512 512s512-229.23 512-512z" />
<glyph unicode="&#xe90d;" d="M332.938 472.206c-36.595 0-66.365-29.772-66.365-66.364v-179.926c0-36.592 29.77-66.364 66.365-66.364s66.365 29.772 66.365 66.364v179.926c0 36.592-29.77 66.364-66.365 66.364z" />
<glyph unicode="&#xe90e;" d="M222.33 405.847c0 6.38 0.842 12.546 1.885 18.632-26.661-8.619-46.128-33.382-46.128-62.878v-91.434c0-29.496 19.467-54.259 46.128-62.878-1.043 6.086-1.885 12.252-1.885 18.632v179.926z" />
<glyph unicode="&#xe90f;" d="M686.886 472.206c-36.597 0-66.364-29.772-66.364-66.364v-179.926c0-36.592 29.767-66.364 66.364-66.364 6.652 0 12.951 1.282 19.011 3.108-8.232-27.296-33.311-47.349-63.256-47.349h-70.438c-9.163 25.693-33.489 44.241-62.29 44.241-36.597 0-66.366-29.772-66.366-66.364 0-36.597 29.769-66.364 66.366-66.364 28.801 0 53.128 18.548 62.29 44.241h70.438c60.99 0 110.61 49.624 110.61 110.61v224.167c0 36.592-29.772 66.364-66.364 66.364z" />
<glyph unicode="&#xe910;" d="M795.612 424.479c1.042-6.086 1.883-12.252 1.883-18.632v-179.926c0-6.38-0.841-12.546-1.883-18.632 26.66 8.619 46.129 33.382 46.129 62.878v91.434c0 29.496-19.469 54.259-46.129 62.878z" />
<glyph unicode="&#xe911;" d="M509.912 781.913c-182.978 0-331.825-148.847-331.825-331.825v-0.565c13.18 9.977 28.429 17.279 45.257 20.551 10.34 149.243 134.746 267.596 286.568 267.596 151.824 0 276.231-118.353 286.569-267.596 16.829-3.268 32.078-10.574 45.256-20.551v0.565c0 182.978-148.845 331.825-331.825 331.825z" />
<glyph unicode="&#xe912;" glyph-name="ic_infor_recharge" horiz-adv-x="717" d="M664.136 506.022c-9.989 7.864-98.191 104.993-148.137 150.263-0.215 0.212-0.215 0.212-0.215 0.425v209.136c0 51.859-42.295 94.154-94.154 94.154h-308.39c-48.246 0-87.565-39.532-87.565-87.565v-490.534c0-51.86 42.295-94.152 94.153-94.152h112.432c3.826 0 7.014 3.4 6.589 7.224l-4.889 41.656c-0.425 3.4-3.188 5.74-6.588 5.74h-13.39c-3.613 0-6.588 2.975-6.588 6.589v557.27c0 3.613 2.975 6.589 6.588 6.589h208.286c21.041 0 38.257-17.215 38.257-38.256v-500.099c0-14.454-9.989-26.778-23.379-30.602-0.213 0-0.213 0-0.425 0-22.741 12.324-49.521 65.034-53.559 73.324-0.425 0.635-0.638 1.485-0.638 2.125-1.488 13.389-16.578 143.037-85.652 143.037-1.913 0-3.826 0-5.738-0.212 0 0-55.26-4.676-9.564-162.163 0-0.43 0.212-0.64 0.212-1.065l20.191-174.495c0-0.21 0-0.425 0.212-0.85 1.7-6.584 24.654-95.642 83.952-158.761 1.063-1.275 1.7-2.765 1.7-4.465v-15.089c0-0.425-0.212-0.64-0.637-0.64h-5.314c-12.965 0-23.591-10.624-23.591-23.593v-61.42c0-12.964 10.627-23.593 23.591-23.593h250.158c12.964 0 23.588 10.629 23.588 23.593v60.995c0 12.969-10.624 23.593-23.588 23.593-0.425 0-0.64 0.215-0.64 0.64 8.289 76.938 38.042 340.055 53.985 360.673 0.425 0.635 0.85 1.275 1.060 2.125 2.765 9.564 16.579 68.011-22.313 98.404zM124.079 348.534c0-3.4-2.763-5.949-5.951-5.949-20.828 0-37.831 16.998-37.831 37.827v494.575c0 20.829 17.003 37.831 37.831 37.831 3.401 0 5.951-2.763 5.951-5.951v-558.332z" />
<glyph unicode="&#xe913;" glyph-name="ic_infor_withdrawal" horiz-adv-x="970" d="M239.527 654.598c0-165.363 134.052-299.415 299.415-299.415 165.36 0 299.413 134.053 299.413 299.415s-134.052 299.415-299.413 299.415c-165.282-0.185-299.23-134.134-299.415-299.415zM538.941 635.678c-49.686-0.278-91.788 36.521-98.146 85.802-6.357 49.269 25.023 95.563 73.158 107.895v25.312c0 11.463 9.287 20.75 20.75 20.75 11.466 0 20.752-9.287 20.752-20.75v-24.050c47.077-7.966 81.446-48.899 81.144-96.663 0-11.324-9.184-20.507-20.507-20.507s-20.507 9.183-20.507 20.507c-0.032 31.345-25.46 56.726-56.806 56.692s-56.726-25.474-56.68-56.82c0.034-31.333 25.474-56.715 56.819-56.668 50.82-0.29 93.030-39.289 97.325-89.936 4.295-50.636-30.747-96.189-80.788-105.035v-24.733c0-11.463-9.286-20.75-20.752-20.75-11.463 0-20.75 9.287-20.75 20.75v26.007c-43.364 11.452-73.667 50.543-73.957 95.389 0 11.591 9.402 20.993 20.993 20.993s20.993-9.402 20.993-20.993c0.070-28.983 21.908-53.287 50.717-56.449 1.065 0.174 2.154 0.255 3.242 0.267 1.563 0 3.112-0.185 4.643-0.533 31.124 0.764 55.824 26.447 55.371 57.572-0.453 31.137-25.891 56.090-57.016 55.951zM997.71 238.802c-0.14-0.081-0.286-0.167-0.447-0.248l-175.508-91.988c1.886-10.779 2.711-21.747 2.447-32.725-0.275-11.356-8.65-20.405-18.885-20.405-0.183 0-0.361 0-0.539 0l-256.868 7.847c-10.446 0.313-18.676 9.96-18.391 21.547s8.989 20.717 19.425 20.399l236.113-7.211c-7.831 50.763-46.845 88.36-93.249 89.859l-156.254 4.764c-30.861 0.986-61.12 9.658-88.542 25.379l-15.9 9.13c-78.086 45.131-172.177 39.257-245.199-15.322l-6.256-252.179 26.851 15.953c26.683 15.915 57.902 19.709 87.064 10.569l265.18-82.578c51.108-11.614 104.222-5.034 151.762 18.82l367.39 263.637c-20.965 23.811-53.431 29.793-80.195 14.751zM0-60.125l7.81 355.425 111.956-3.87-7.81-355.425-111.956 3.87z" />
<glyph unicode="&#xe914;" glyph-name="ic_information" d="M512 5.345l94.008 21.693-72.315 72.31-21.693-94.003zM493.433 67.272l15.554 67.405c0.038 0.164 0.094 0.317 0.138 0.481 0.074 0.276 0.148 0.558 0.236 0.829 0.088 0.276 0.176 0.507 0.27 0.753s0.176 0.466 0.276 0.696c0.118 0.276 0.248 0.543 0.38 0.804 0.098 0.2 0.2 0.389 0.302 0.579 0.154 0.282 0.318 0.548 0.486 0.814 0.108 0.169 0.216 0.338 0.33 0.507 0.184 0.266 0.378 0.522 0.578 0.778 0.124 0.159 0.242 0.312 0.37 0.466 0.2 0.246 0.43 0.481 0.65 0.717 0.087 0.092 0.169 0.2 0.261 0.287l209.608 209.613c-58.516 120.362-166.723 192-290.883 192-91.044 0-175.156-38.97-236.842-109.732-62.124-71.265-97.13-170.598-99.073-280.581 36.728-18.519 187.538-89.687 335.914-89.687 20.524 0.031 41.033 1.126 61.444 3.272zM547.098 131.087l248.868 248.863 90.496-90.496-248.868-248.863-90.496 90.496zM432 576c88.366 0 160 71.634 160 160s-71.634 160-160 160c-88.366 0-160-71.634-160-160s71.634-160 160-160zM928.005 357.345c-0.005 12.657-3.758 25.032-10.788 35.553-7.035 10.522-17.029 18.724-28.723 23.567s-24.561 6.113-36.977 3.64c-12.416-2.468-23.818-8.566-32.768-17.516l90.506-90.506c5.965 5.929 10.691 12.984 13.911 20.751 3.215 7.772 4.864 16.102 4.838 24.509z" />
<glyph unicode="&#xe915;" glyph-name="ic_livechat" d="M914.286 959.952h-804.571c-60.593 0-109.714-49.12-109.714-109.714v-585.144c0-60.592 49.121-109.714 109.714-109.714h129.829l-19.894-178.834c-2.218-20.075 12.259-38.146 32.336-40.365 10.367-1.141 20.73 2.194 28.483 9.172l233.4 210.027h400.418c60.592 0 109.714 49.123 109.714 109.714v585.144c0 60.594-49.123 109.714-109.714 109.714z" />
<glyph unicode="&#xe916;" glyph-name="ic_logout" d="M510.3 22.75h-382.726c-23.474 0-42.524 19.055-42.524 42.53v765.446c0 23.474 19.052 42.524 42.524 42.524h382.726c23.516 0 42.524 19.008 42.524 42.524s-19.008 42.528-42.524 42.528h-382.726c-70.336 0-127.574-57.24-127.574-127.576v-765.446c0-70.34 57.238-127.573 127.574-127.573h382.726c23.516 0 42.524 19.004 42.524 42.522s-19.008 42.522-42.524 42.522zM1011.337 478.28l-258.552 255.149c-16.67 16.5-43.63 16.287-60.13-0.426s-16.33-43.63 0.426-60.13l184.77-182.345h-495.118c-23.515 0-42.523-19.008-42.523-42.524s19.008-42.526 42.523-42.526h495.118l-184.77-182.346c-16.753-16.5-16.881-43.418-0.426-60.13 8.335-8.42 19.306-12.672 30.278-12.672 10.802 0 21.602 4.082 29.852 12.248l258.552 255.15c8.081 7.994 12.672 18.882 12.672 30.278 0 11.392-4.548 22.236-12.672 30.275z" />
<glyph unicode="&#xe917;" d="M1024 448c0-282.77-229.23-512-512-512s-512 229.23-512 512c0 282.77 229.23 512 512 512s512-229.23 512-512z" />
<glyph unicode="&#xe918;" d="M830.077 627.508l-0.187 0.741c-14.99 60.601-82.57 125.628-144.633 139.157l-0.699 0.144c-100.383 19.15-202.169 19.15-302.53 0l-0.721-0.144c-62.042-13.529-129.623-78.556-144.634-139.157l-0.165-0.741c-18.532-84.631-18.532-170.457 0-255.088l0.165-0.739c14.371-58.016 76.919-120.057 136.665-137.118v-67.646c0-24.483 29.837-36.508 46.804-18.842l68.537 71.244c14.866-0.833 29.741-1.296 44.615-1.296 50.528 0 101.082 4.777 151.263 14.354l0.699 0.142c62.063 13.53 129.643 78.559 144.633 139.157l0.187 0.744c18.534 84.631 18.534 170.457 0 255.088zM775.84 384.695c-10.008-39.535-61.324-88.687-102.093-97.77-53.377-10.151-107.173-14.487-160.915-13-1.069 0.031-2.097-0.383-2.845-1.149-7.627-7.831-50.042-51.374-50.042-51.374l-53.228-54.628c-3.892-4.056-10.728-1.296-10.728 4.305v112.061c0 1.852-1.322 3.424-3.14 3.78-0.011 0.004-0.021 0.004-0.031 0.009-40.771 9.078-92.064 58.23-102.092 97.765-16.679 76.497-16.679 154.046 0 230.543 10.028 39.536 61.322 88.688 102.092 97.768 93.217 17.729 187.733 17.729 280.93 0 40.791-9.081 92.084-58.233 102.093-97.768 16.696-76.499 16.696-154.046 0-230.543z" />
<glyph unicode="&#xe919;" d="M621.982 332.969c-6.269 1.901-12.239 3.179-17.786 5.481-57.486 23.85-110.387 54.619-152.296 101.781-23.83 26.82-42.481 57.104-58.248 89.146-7.477 15.197-13.778 30.988-20.2 46.677-5.856 14.307 2.77 29.087 11.853 39.867 8.523 10.117 19.49 17.859 31.367 23.565 9.27 4.454 18.415 1.886 25.186-5.971 14.638-16.988 28.079-34.845 38.969-54.536 6.692-12.112 4.857-26.917-7.279-35.16-2.947-2.004-5.632-4.355-8.379-6.618-2.409-1.983-4.679-3.986-6.331-6.672-3.019-4.913-3.161-10.708-1.215-16.048 14.959-41.116 40.176-73.091 81.564-90.312 6.62-2.751 13.272-5.961 20.903-5.071 12.778 1.491 16.914 15.507 25.867 22.831 8.749 7.155 19.932 7.248 29.362 1.282 9.425-5.966 18.566-12.373 27.652-18.846 8.918-6.353 17.795-12.573 26.023-19.817 7.912-6.963 10.632-16.104 6.18-25.555-8.152-17.315-20.017-31.717-37.136-40.911-4.831-2.596-10.605-3.433-16.055-5.111-6.269 1.906 5.449 1.678 0 0z" />
<glyph unicode="&#xe91a;" d="M533.451 659.284c75.188-2.107 136.944-52.006 150.181-126.341 2.253-12.666 3.059-25.618 4.060-38.471 0.423-5.409-2.64-10.543-8.477-10.614-6.028-0.071-8.74 4.969-9.131 10.374-0.775 10.699-1.309 21.447-2.783 32.058-7.787 56.011-52.447 102.35-108.201 112.294-8.388 1.497-16.976 1.89-25.471 2.782-5.374 0.565-12.408 0.89-13.601 7.567-0.997 5.599 3.726 10.057 9.060 10.343 1.447 0.080 2.907 0.014 4.363 0.008 75.188-2.107-1.456 0.006 0 0z" />
<glyph unicode="&#xe91b;" d="M647.716 511.159c-0.125-0.939-0.191-3.148-0.739-5.227-1.995-7.551-13.441-8.495-16.077-0.877-0.779 2.262-0.899 4.835-0.899 7.27-0.027 15.924-3.491 31.833-11.522 45.689-8.254 14.241-20.867 26.213-35.657 33.457-8.944 4.38-18.619 7.102-28.423 8.724-4.287 0.708-8.615 1.139-12.92 1.738-5.218 0.725-8.005 4.050-7.76 9.192 0.232 4.818 3.753 8.284 9.002 7.987 17.257-0.98 33.926-4.709 49.263-12.833 31.196-16.521 49.018-42.598 54.219-77.418 0.236-1.577 0.614-3.14 0.735-4.724 0.294-3.91 0.476-7.825 0.779-12.98-0.125-0.939-0.303 5.155 0 0z" />
<glyph unicode="&#xe91c;" d="M600.95 512.975c-6.291-0.116-9.661 3.368-10.307 9.135-0.454 4.022-0.81 8.097-1.768 12.009-1.892 7.705-5.988 14.846-12.471 19.568-3.059 2.23-6.527 3.855-10.16 4.903-4.612 1.332-9.403 0.966-14.011 2.094-5 1.225-7.765 5.273-6.977 9.964 0.712 4.269 4.866 7.6 9.532 7.263 29.153-2.105 49.985-17.176 52.959-51.493 0.209-2.422 0.459-4.981-0.080-7.298-0.922-3.966-3.856-5.954-6.718-6.145-6.291-0.116 2.863 0.191 0 0z" />
<glyph unicode="&#xe91d;" glyph-name="prev" d="M23.537 486.177l938.651 469.327c17.11 8.534 37.851 4.694 50.735-9.6 12.884-14.25 14.634-35.285 4.347-51.497l-284.070-446.415 284.070-446.418c10.287-16.207 8.536-37.246-4.347-51.498-8.285-9.216-19.884-14.075-31.66-14.075-6.488 0-13.014 1.452-19.074 4.478l-938.651 469.328c-14.464 7.255-23.594 22.016-23.594 38.186s9.13 30.933 23.594 38.185z" />
<glyph unicode="&#xe91e;" d="M853.333 778.735v95.032c-0.061 46.887-38.229 84.882-85.333 84.941h-682.667c-47.104-0.059-85.274-38.054-85.333-84.941v-373.741c0.132-43.383 33.169-79.665 76.527-84.066l64.154-165.766c16.947-43.771 66.33-65.575 110.307-48.728l400.618 153.617c-27.682-71.975-19.807-152.715 21.255-218.049l9.806-15.609v-165.022c0-9.387 7.636-16.989 17.067-16.989h307.2c9.428 0 17.067 7.602 17.067 16.989v560.759c-0.163 58.748-23.659 115.039-65.387 156.589l-105.279 104.982zM853.333 677.137l51.797-133.842c10.15-26.273-3.004-55.749-29.394-65.863l-29.606-11.381c4.727 10.711 7.175 22.287 7.202 33.975v177.111zM34.133 500.027v373.741c0 28.141 22.929 50.965 51.2 50.965h682.667c28.27 0 51.2-22.824 51.2-50.965v-107.977h-0.149l0.149-0.386v-265.377c-0.132-2.965-0.522-5.903-1.161-8.799l-156.331 155.628c-35.14 34.172-91.16 34.436-126.618 0.619-35.465-33.836-37.593-89.556-4.796-125.954l66.645-72.458h-511.607c-28.271 0-51.2 22.823-51.2 50.964zM252.774 415.086l-121.361-46.509-17.954 46.509h139.315zM238.711 233.179c-26.385-10.123-56.017 2.97-66.185 29.233l-28.791 74.528 203.725 78.248h280.764l22.182-24.071-411.694-157.937zM989.867-26.607h-273.067v135.904h273.067v-135.904zM989.867 143.275h-280.661l-7.402 11.774c-41.613 66.194-43.269 149.801-4.323 217.568 3.686 6.412 2.782 14.465-2.236 19.909l-139.856 151.874c-20.855 22.723-19.683 57.849 2.645 79.131 22.335 21.287 57.641 20.938 79.538-0.773l271.962-270.648 24.132 24.023-63.147 62.857 17.51 6.795c43.939 16.874 65.833 65.987 48.93 109.748l-57.766 149.309 55.286-55.147c35.328-35.157 55.25-82.803 55.386-132.53v-373.889z" />
<glyph unicode="&#xe91f;" d="M194.561 720.874c24.508 0 44.373 19.774 44.373 44.169v81.543c0 24.395-19.866 44.169-44.373 44.169h-81.92c-24.508 0-44.373-19.774-44.373-44.169v-81.543c0-24.395 19.866-44.169 44.373-44.169h81.92zM102.401 765.043v23.783h34.133v33.977h-34.133v23.783c0 5.627 4.587 10.193 10.24 10.193h81.92c5.653 0 10.24-4.566 10.24-10.193v-23.783h-34.133v-33.977h34.133v-23.783c0-5.627-4.587-10.193-10.24-10.193h-81.92c-5.653 0-10.24 4.566-10.24 10.193z" />
<glyph unicode="&#xe920;" d="M85.333 669.911h68.267v-33.977h-68.267v33.977z" />
<glyph unicode="&#xe921;" d="M85.333 567.976h68.267v-33.977h-68.267v33.977z" />
<glyph unicode="&#xe922;" d="M392.533 567.976h68.267v-33.977h-68.267v33.977z" />
<glyph unicode="&#xe923;" d="M187.732 669.911h68.265v-33.977h-68.265v33.977z" />
<glyph unicode="&#xe924;" d="M290.133 669.911h68.267v-33.977h-68.267v33.977z" />
<glyph unicode="&#xe925;" d="M392.533 669.911h68.267v-33.977h-68.267v33.977z" />
<glyph unicode="&#xe926;" d="M716.8 873.768h34.133v-50.964h-34.133v50.964z" />
<glyph unicode="&#xe927;" d="M648.533 873.768h34.133v-50.964h-34.133v50.964z" />
<glyph unicode="&#xe928;" d="M580.267 873.768h34.133v-50.964h-34.133v50.964z" />
<glyph unicode="&#xe929;" d="M512 873.768h34.133v-50.964h-34.133v50.964z" />
<glyph unicode="&#xe92a;" d="M750.933 75.323h34.136v-33.977h-34.136v33.977z" />
<glyph unicode="&#xe92b;" horiz-adv-x="1001" d="M242.226 431.334h-161.42v-32.176h161.42v32.176z" />
<glyph unicode="&#xe92c;" horiz-adv-x="1001" d="M274.55 334.812h-193.745v-32.176h193.745v32.176z" />
<glyph unicode="&#xe92d;" horiz-adv-x="1001" d="M500.818 334.812h-129.295v-32.176h129.295v32.176z" />
<glyph unicode="&#xe92e;" horiz-adv-x="1001" d="M629.912 238.283h-549.107v-32.174h549.107v32.174z" />
<glyph unicode="&#xe92f;" horiz-adv-x="1001" d="M977.59 761.323c-40.6 40.415-98.941 15.107-114.119 0l-234.739-233.661h-628.734v-417.883h807.5v368.442l170.093 169.313c31.535 31.389 31.535 82.398 0 113.789zM635.039 488.621l68.588-68.273-45.725-45.516-68.59 68.273 45.727 45.516zM625.184 362.077l-60.903-12.163 12.22 60.623 48.683-48.46zM775.173 141.954h-742.852v353.533h564.086l-44.74-44.535-28.579-142.040 142.696 28.447 109.388 108.885v-304.29zM726.492 443.105l-68.59 68.078 217.002 216.003 68.59-68.273-217.002-215.807zM964.187 683.829l-64.253 63.957c17.936 8.044 40.603 5.101 54.793-9.221 14.98-14.714 17.936-36.686 9.459-54.736z" />
<glyph unicode="&#xe930;" horiz-adv-x="1001" d="M874.894 681.763l-91.423-91.002 22.856-22.751 91.425 91.002-22.858 22.751z" />
<glyph unicode="&#xe931;" glyph-name="top_winner" d="M972.8 908.8h-153.6v51.2h-614.4v-51.2h-153.6c-30.72 0-51.2-20.48-51.2-51.2v-122.88c0-117.76 87.040-215.040 204.8-230.4v-5.12c0-148.48 102.4-271.36 240.64-302.080l-35.84-107.52h-117.76c-20.48 0-40.96-15.36-46.080-35.84l-40.96-117.76h614.4l-40.96 117.76c-5.12 20.48-25.6 35.84-46.080 35.84h-117.76l-35.84 107.52c138.24 30.72 240.64 153.6 240.64 302.080v5.12c117.76 15.36 204.8 112.64 204.8 230.4v122.88c0 30.72-20.48 51.2-51.2 51.2zM204.8 606.72c-56.32 15.36-102.4 66.56-102.4 128v71.68h102.4v-199.68zM614.4 448l-102.4 56.32-102.4-56.32 25.6 102.4-76.8 102.4h107.52l46.080 102.4 46.080-102.4h107.52l-76.8-102.4 25.6-102.4zM921.6 734.72c0-61.44-46.080-117.76-102.4-128v199.68h102.4v-71.68z" />
<glyph unicode="&#xe932;" glyph-name="withdrawal" horiz-adv-x="1000" d="M500.095 905.176h-33.34v-99.559h33.34v99.559zM883.5 357.605v165.933c0 9.164-7.466 16.591-16.67 16.591h-66.679v82.968c0 9.161-7.466 16.591-16.67 16.591h-102.852c-10.735 65.136-53.46 120.626-113.855 147.879v51.24h-33.34v-62.224c-0.005-6.836 4.203-12.976 10.602-15.465 85.68-33.201 128.1-129.257 94.744-214.542-0.848-2.167-1.741-4.315-2.677-6.446h-114.34c17.189 19.527 15.219 49.226-4.396 66.336-3.089 2.696-6.523 4.977-10.204 6.792l-32.489 16.177c-7.037 3.498-9.888 12.007-6.375 19.011 2.403 4.789 7.313 7.821 12.69 7.837h4.87c7.856-0.007 14.226-6.349 14.234-14.169v-2.424h33.342v2.424c-0.079 20.616-13.569 38.807-33.342 44.949v19.001h-33.34v-19.001c-25.002-7.74-38.964-34.19-31.189-59.078 3.844-12.298 12.569-22.497 24.154-28.234l32.492-16.179c7.035-3.496 9.885-12.007 6.373-19.008-2.408-4.801-7.335-7.835-12.724-7.84h-4.87c-7.856 0.010-14.226 6.349-14.236 14.172v2.422h-33.337v-2.422c0.038-11.319 4.182-22.245 11.669-30.765h-114.34c-9.276 20.909-14.053 43.518-14.019 66.374 0.124 64.829 38.038 123.693 97.17 150.864 2.934 1.327 5.911 2.582 8.933 3.767 6.385 2.491 10.588 8.622 10.588 15.448v95.411h-33.342v-84.443h-0.1c-60.049-27.629-102.567-82.94-113.654-147.862h-152.961c-36.826 0-66.679-29.715-66.679-66.372v-564.167c0-36.654 29.853-66.372 66.679-66.372h733.471c9.204 0 16.67 7.43 16.67 16.594v165.931c27.619 0 50.009 22.287 50.009 49.781v132.744c0 27.493-22.39 49.778-50.009 49.778zM683.463 606.503h83.349v-66.374h-95.018c7.701 21.292 11.647 43.744 11.669 66.374zM133.359-24.035c-18.414 0-33.34 14.858-33.34 33.185v507.021c10.091-5.973 21.6-9.156 33.34-9.226v-530.98zM100.020 573.316c0 18.33 14.926 33.187 33.34 33.187h150.027c0.021-22.63 3.97-45.082 11.669-66.374h-161.696c-18.414 0-33.34 14.858-33.34 33.187zM850.161-24.035h-683.462v530.98h683.462v-149.34h-216.709c-64.443 0-116.686-52.003-116.686-116.15 0-64.15 52.243-116.153 116.686-116.153h216.709v-149.337zM900.17 175.083c0-9.164-7.466-16.594-16.67-16.594h-250.049c-46.030 0-83.349 37.145-83.349 82.965 0 45.818 37.319 82.965 83.349 82.965h250.049c9.204 0 16.67-7.43 16.67-16.594v-132.744zM633.454 291.233c-27.622 0-50.009-22.285-50.009-49.778s22.387-49.781 50.009-49.781c27.619 0 50.009 22.287 50.009 49.781s-22.39 49.778-50.009 49.778zM633.454 224.861c-9.206 0-16.67 7.43-16.67 16.594s7.463 16.594 16.67 16.594c9.204 0 16.67-7.43 16.67-16.594s-7.466-16.594-16.67-16.594zM566.774 905.176h-33.34v-33.186h33.34v33.186zM433.414 938.36h-33.34v-33.186h33.34v33.186zM600.114 623.097h-33.342v-33.187h33.342v33.187zM400.077 623.097h-33.34v-33.187h33.34v33.187z" />
<glyph unicode="&#xe933;" glyph-name="eye_show" d="M6.983 469.485c62.133 81.455 136.79 152.544 221.187 210.618l131.441-131.441c-55.734-84.025-32.799-197.324 51.228-253.053 61.169-40.576 140.687-40.57 201.85 0.013l118.089-118.24c-67.117-36.915-142.188-56.998-218.773-58.515-277.948 0-495.88 295.064-505.023 307.645-9.3 12.815-9.3 30.161 0.002 42.973zM512.010 777.17c277.949 0 495.882-295.1 505.027-307.681 9.299-12.815 9.299-30.159 0-42.972-62.138-81.456-136.794-152.547-221.19-210.62l-131.443 131.443c19.872 29.818 30.47 64.85 30.47 100.684 0.16 100.829-81.447 182.699-182.275 182.861-36.022 0.058-71.258-10.543-101.268-30.465l-118.091 118.238c67.114 36.913 142.186 56.995 218.77 58.512z" />
<glyph unicode="&#xe934;" glyph-name="arrow_viewmore" d="M512 960l-90.24-90.24 357.12-357.76h-778.88v-128h778.88l-357.12-357.76 90.24-90.24 512 512-512 512z" />
<glyph unicode="&#xe935;" glyph-name="ic_km" horiz-adv-x="1073" d="M88.365 407.147v-397.312c0-36.552 28.736-66.219 64-66.219h320v463.531h-384zM984.381 672.020h-202.498c14.531 10.264 27.009 20.461 35.713 29.599 51.649 53.703 51.649 141.112 0 194.815-50.176 52.313-137.596 52.18-187.709 0-27.78-28.805-101.376-146.078-91.204-224.414h-4.603c10.108 78.336-63.49 195.609-91.202 224.414-50.176 52.18-137.6 52.18-187.712 0-51.584-53.703-51.584-141.112-0.064-194.815 8.768-9.138 21.248-19.336 35.776-29.599h-202.496c-35.264 0-64-29.733-64-66.219v-99.328c0-18.276 14.336-33.109 32-33.109h416v132.437h128v-132.437h416.002c17.662 0 31.998 14.833 31.998 33.109v99.328c0 36.486-28.672 66.219-64 66.219zM468.605 674.205c0 0-2.688-2.185-11.84-2.185-44.224 0-128.64 47.545-156.224 76.284-26.816 27.944-26.816 73.503 0 101.447 12.992 13.509 30.208 20.925 48.512 20.925 18.24 0 35.456-7.416 48.448-20.925 43.136-44.896 86.016-159.586 71.104-175.545zM615.931 672.020c-9.084 0-11.776 2.185-11.776 2.185-14.911 15.959 27.97 130.649 71.105 175.545 25.795 26.951 70.914 27.084 96.963 0 26.878-27.944 26.878-73.502 0-101.447-27.585-28.739-112.001-76.284-156.292-76.284zM600.357 407.147v-463.531h320c35.328 0 64 29.667 64 66.219v397.312h-384z" />
<glyph unicode="&#xe936;" glyph-name="ic_livechat2" horiz-adv-x="1109" d="M1092.275 544.314c0 206.042-199.889 373.666-445.568 373.666-245.692 0-445.578-167.626-445.578-373.666s199.886-373.664 445.578-373.664c20.655 0 41.382 1.195 61.764 3.558 94.63-60.117 164.489-93.022 207.787-97.835 1.506-0.162 3.021-0.247 4.506-0.247 13.909 0 26.782 6.933 34.445 18.556 8.572 13.001 9.131 29.491 1.498 42.957-0.354 0.644-33.771 61.606-24.128 119.838 101.653 71.142 159.697 175.1 159.697 286.837zM525.696 487.881c-36.459 0-66.001 29.551-66.001 66.003s29.542 66.004 66.001 66.004c36.45 0 66.005-29.552 66.005-66.004 0.004-36.452-29.555-66.003-66.005-66.003zM767.723 487.881c-36.463 0-66.014 29.551-66.014 66.003s29.551 66.004 66.014 66.004c36.45 0 66.001-29.552 66.001-66.004s-29.551-66.003-66.001-66.003zM295.234 245.359c-44.211 36.608-79.062 79.458-103.57 127.356-25.842 50.505-38.943 104.226-38.943 159.671 0 55.448 13.103 109.167 38.943 159.668 1.978 3.865 4.049 7.683 6.159 11.482-109.131-62.523-180.776-166.874-180.776-284.836 0-105.975 57.089-204.237 156.824-270.336 18.421-72.414-24.326-149.030-24.777-149.815-2.547-4.493-2.359-10.035 0.483-14.349 2.562-3.883 6.887-6.182 11.478-6.182 0.508 0 1.014 0.030 1.527 0.085 49.899 5.538 137.768 56.256 204.336 99.017 22.419-3.042 45.337-4.582 68.201-4.582 87.45 0 168.7 22.366 235.887 60.523-15.010-1.199-30.131-1.843-45.205-1.843-124.271 0-241.668 40.538-330.567 114.142z" />
<glyph unicode="&#xe937;" glyph-name="ic_menu" horiz-adv-x="1126" d="M25.588 844.125c0 41.021 35.629 74.275 79.58 74.275h916.042c43.95 0 79.58-33.254 79.58-74.275s-35.63-74.275-79.58-74.275h-916.042c-43.951 0-79.58 33.254-79.58 74.275zM25.588 447.98c0 41.022 35.629 74.277 79.58 74.277h916.037c43.955 0 79.585-33.254 79.585-74.277 0-41.021-35.63-74.276-79.585-74.276h-916.037c-43.951 0-79.58 33.254-79.58 74.276zM25.588 51.876c0 41.021 35.629 74.276 79.58 74.276h916.042c43.95 0 79.58-33.254 79.58-74.276s-35.63-74.276-79.58-74.276h-916.042c-43.951 0-79.58 33.254-79.58 74.276z" />
<glyph unicode="&#xe938;" glyph-name="ic_banca" d="M266.811 878.312c32.076-7.214 55.697-18.448 73.557-31.442 78.504 21.787 169.464 30.558 255.399 22.127-87.215 98.509-208.32 110.484-332.439 67.187-29.862-10.417-25.928-51.942 3.483-57.872zM139.441 336.563c59.589 52.006 127.494 63.902 201.831 35.358 69.047-27.371 181.966-59.695 284.938-76.284-7.424 11.682-7.488 11.755-7.996 12.629-27.776 48.277-88.687 173.559-54.558 293.935 20.113 70.938 69.252 128.010 146.057 169.635 0.627 0.352 0.512 0.288 12.975 7.108-93.713 35.459-200.201 40.59-298.647 24.751-89.090-14.252-135.558-36.727-179.194-65.566-212.162-140.050-272.799-329.963-233.695-489.37 0.004-0.017 0.010-0.030 0.014-0.047 45.836-186.667 237.47-303.548 245.606-308.433 4.568-2.739 9.813-4.275 15.689-4.275 8.404 0 61.167 1.775 97.792 44.915 32.37 38.127 41.583 94.882 27.376 168.687-3.599 18.718-23.803 29.542-41.555 21.773-0.496-0.218-50.263-21.666-110.952-19.388-72.911 2.743-130.234 37.85-170.593 104.41 10.409 18.095 32.234 51.644 64.914 80.162zM1023.603 356.553c-26.381 171.883-101.636 312.838-234.146 390.551-69.888-38.242-45.777-25.060-50.995-27.907-62.153-33.642-101.551-78.51-117.103-133.357-27.772-97.96 24.393-205.010 48.525-247.097l33.651-52.937c100.271-9.143 204.309-3.622 292.203 34.014 10.453 4.48 17.894 7.091 23.522 15.915 3.947 6.191 5.487 13.572 4.343 20.817zM800.294 513.822c-17.306 0-30.246 13.815-30.246 29.992 0 16.201 12.966 29.99 30.246 29.99 16.563 0 29.99-13.428 29.99-29.99 0-16.564-13.427-29.992-29.99-29.992z" />
<glyph unicode="&#xe939;" glyph-name="ic_esport" d="M832-4.002h-81.626c-42.752 0-79.868 30.43-88.252 72.354l-7.531 37.649h-285.186l-7.53-37.653c-8.384-41.92-45.5-72.35-88.252-72.35h-81.624c-16.568 0-30-13.431-30-29.999s13.432-29.999 30-29.999h640c16.567 0 29.999 13.431 29.999 29.999s-13.431 29.999-29.999 29.999zM602.001 562.993c0 39.11-25.084 72.456-60.002 84.84v-169.676c34.918 12.382 60.002 45.726 60.002 84.836zM944 392.998h80v340.002h-80c-5.513 0-10.001-4.486-10.001-10v-320c0-5.513 4.489-10.001 10.001-10.001zM813.999 562.993c0-39.11 25.084-72.454 60.002-84.841v169.681c-34.918-12.384-60.002-45.73-60.002-84.84zM422 562.993c0-39.11 25.083-72.454 60.001-84.841v169.681c-34.918-12.384-60.001-45.73-60.001-84.84zM874.001 402.999v13.018c-68.386 13.935-120 74.543-120 146.983 0 72.438 51.614 133.044 120 146.982v13.018c0 38.598 31.403 70 69.999 70h80v77c0 49.626-40.375 90-90.001 90h-392v-250.018c68.386-13.936 120-74.544 120-146.982 0-72.44-51.614-133.044-120-146.983v-250.018h392c49.626 0 90.001 40.375 90.001 90.001v77.001h-80c-38.596 0-69.999 31.403-69.999 69.999zM210 562.993c0 39.11-25.082 72.456-60 84.84v-169.676c34.918 12.382 60 45.726 60 84.836zM482.001 416.017c-68.385 13.935-120.001 74.543-120.001 146.983 0 72.438 51.616 133.044 120.001 146.982v250.018h-392.001c-49.626 0-90-40.374-90-90v-77h80c38.598 0 70-31.402 70-70v-13.018c68.384-13.936 120-74.544 120-146.982 0-72.44-51.616-133.044-120-146.983v-13.018c0-38.596-31.402-69.999-70-69.999h-80v-77.001c0-49.626 40.374-90.001 90-90.001h392.001v250.018zM80 733h-80v-340.002h80c5.514 0 10 4.489 10 10.001v320c0 5.514-4.486 10-10 10z" />
<glyph unicode="&#xe93a;" glyph-name="ic_ingame" d="M477.026 801.334l-93.068 97.439c-11.068 11.592-25.99 18.178-42.013 18.544-16.058 0.38-31.23-5.528-42.818-16.598l-280.57-267.99c-11.59-11.070-18.176-25.99-18.542-42.013s5.528-31.229 16.598-42.815l181.381-189.901v323.337c0 66.167 53.831 119.998 119.998 119.998h159.033zM978.735 794.419l-376.085 95.369c-15.535 3.946-31.676 1.596-45.449-6.604s-23.522-21.271-27.46-36.803l-11.422-45.045h187.682c66.163 0 119.996-53.831 119.996-119.998v-597.002c6.353 1.353 12.51 3.738 18.253 7.159 13.773 8.201 23.526 21.269 27.465 36.804l150.434 593.213c8.128 32.070-11.345 64.775-43.413 72.907zM705.988 741.333h-387.994c-33.083 0-59.999-26.915-59.999-59.999v-611.992c0-33.084 26.916-59.998 59.999-59.998h387.994c33.084 0 59.998 26.914 59.998 59.998v611.992c0 33.084-26.914 59.999-59.998 59.999zM399.993 629.333c16.568 0 29.998-13.432 29.998-29.999s-13.43-30-29.998-30c-16.568 0-30 13.432-30 30s13.432 29.999 30 29.999zM511.991 233.34c-7.155 0-14.306 2.547-20.002 7.642l-89.457 80.021c-0.202 0.179-0.398 0.363-0.596 0.546-22.446 21.197-33.242 53.248-28.884 85.743 4.144 30.908 21.746 57.429 47.087 70.955 12.312 6.554 25.312 9.869 38.671 9.869 20.262 0 38.784-7.718 53.18-20.651 14.396 12.932 32.917 20.651 53.18 20.651 13.359 0 26.359-3.315 38.647-9.856 25.365-13.538 42.965-40.060 47.108-70.963 4.361-32.495-6.438-64.55-28.881-85.743-0.201-0.188-0.393-0.371-0.597-0.546l-89.455-80.026c-5.696-5.094-12.847-7.642-20.002-7.642zM623.991 121.348c-16.572 0-30.003 13.427-30.003 29.999 0 16.567 13.431 29.999 30.003 29.999 16.567 0 29.999-13.431 29.999-29.999s-13.431-29.999-29.999-29.999z" />
<glyph unicode="&#xe93b;" glyph-name="ic_keno" d="M737.348 542.37l38.323 38.047h-38.323v-38.047zM144.604 580.417h59.274v-58.851h-59.274v58.851zM144.604 286.157h59.274v-58.85h-59.274v58.85zM144.604 433.293h59.274v-58.85h-59.274v58.85zM292.797 139.029h59.274v-58.85h-59.274v58.85zM589.188 395.243l38.319 38.050h-38.319v-38.050zM589.188 580.417h59.273v-58.851h-59.273v58.851zM855.898 874.667h-770.564v-205.978h770.564v205.978zM322.43 815.816c0-17.655-8.032-33.339-20.479-44.138 12.448-10.799 20.479-26.483 20.479-44.138v-29.425h-29.637v29.425c0 16.228-13.292 29.425-29.637 29.425v-58.851h-29.637v147.127h29.637v-58.851c16.345 0 29.637 13.197 29.637 29.425v29.425h29.637v-29.425zM426.16 815.816h-44.456v-29.425h44.456v-29.425h-44.456v-29.425h44.456v-29.425h-59.274c-8.18 0-14.819 6.591-14.819 14.712v117.702c0 8.122 6.639 14.713 14.819 14.713h59.274v-29.425zM559.526 712.827c0-6.562-4.369-12.329-10.726-14.139-1.348-0.382-2.726-0.573-4.092-0.573-5.009 0-9.809 2.531-12.565 6.915l-46.707 74.196v-81.111h-29.641v132.414c0 6.562 4.373 12.329 10.731 14.139 6.34 1.78 13.158-0.78 16.657-6.356l46.707-74.182v81.111h29.636v-132.414zM707.712 756.965c0-32.456-26.586-58.851-59.273-58.851-32.691 0-59.277 26.394-59.277 58.851v29.425c0 32.456 26.586 58.851 59.277 58.851 32.687 0 59.273-26.394 59.273-58.851v-29.425zM144.604 139.029h59.274v-58.85h-59.274v58.85zM648.444 815.823c-16.346 0-29.641-13.197-29.641-29.425v-29.425c0-16.228 13.295-29.425 29.641-29.425 16.341 0 29.636 13.197 29.636 29.425v29.425c0 16.228-13.295 29.425-29.636 29.425zM292.797 286.157h59.274v-58.85h-59.274v58.85zM440.96 580.417h59.273v-58.851h-59.273v58.851zM440.96 433.293h59.273v-58.85h-59.273v58.85zM292.797 433.293h59.274v-58.85h-59.274v58.85zM459.29 186.65l76.642 38.046 402.739 399.862-38.319 38.047-402.739-399.876-38.323-76.079zM292.797 580.417h59.274v-58.851h-59.274v58.851zM826.257 448.004v-88.273c0-8.137-6.639-14.716-14.818-14.716h-88.909c-6.374 0-11.695 4.032-13.781 9.651l-40.384-40.090c5.632-2.091 9.707-7.373 9.707-13.696v-88.277c0-8.137-6.639-14.711-14.818-14.711h-88.909c-6.374 0-11.695 4.028-13.781 9.651l-5.38-5.342c-1.126-1.118-2.432-2.061-3.853-2.765l-118.549-58.854c-2.103-1.041-4.369-1.545-6.623-1.545-3.853 0-7.646 1.489-10.492 4.314-4.505 4.484-5.631 11.328-2.786 16.977l18.936 37.564h-5.659c-8.18 0-14.819 6.575-14.819 14.711v88.277c0 8.132 6.639 14.711 14.819 14.711h82.775l50.594 50.227v82.185c0 8.124 6.639 14.716 14.818 14.716h82.773l50.594 50.227v82.185c0 8.122 6.635 14.713 14.818 14.713h82.773l29.641 29.425h-749.613v-617.933h770.567v479.428l-39.36-39.078c5.645-2.074 9.719-7.356 9.719-13.683zM559.526 595.133c0 8.122 6.639 14.713 14.818 14.713h88.909c8.179 0 14.818-6.591 14.818-14.713v-88.274c0-8.124-6.639-14.716-14.818-14.716h-88.909c-8.179 0-14.818 6.592-14.818 14.716v88.274zM411.339 595.133c0 8.122 6.639 14.713 14.819 14.713h88.91c8.179 0 14.818-6.591 14.818-14.713v-88.274c0-8.124-6.639-14.716-14.818-14.716h-88.91c-8.18 0-14.819 6.592-14.819 14.716v88.274zM411.339 448.004c0 8.124 6.639 14.716 14.819 14.716h88.91c8.179 0 14.818-6.592 14.818-14.716v-88.273c0-8.137-6.639-14.716-14.818-14.716h-88.91c-8.18 0-14.819 6.579-14.819 14.716v88.273zM233.516 65.476c0-8.137-6.639-14.711-14.819-14.711h-88.911c-8.18 0-14.819 6.575-14.819 14.711v88.277c0 8.137 6.639 14.711 14.819 14.711h88.911c8.18 0 14.819-6.575 14.819-14.711v-88.277zM233.516 212.604c0-8.137-6.639-14.711-14.819-14.711h-88.911c-8.18 0-14.819 6.575-14.819 14.711v88.277c0 8.132 6.639 14.711 14.819 14.711h88.911c8.18 0 14.819-6.579 14.819-14.711v-88.277zM233.516 359.731c0-8.137-6.639-14.716-14.819-14.716h-88.911c-8.18 0-14.819 6.579-14.819 14.716v88.273c0 8.124 6.639 14.716 14.819 14.716h88.911c8.18 0 14.819-6.592 14.819-14.716v-88.273zM233.516 506.859c0-8.124-6.639-14.716-14.819-14.716h-88.911c-8.18 0-14.819 6.592-14.819 14.716v88.274c0 8.122 6.639 14.713 14.819 14.713h88.911c8.18 0 14.819-6.591 14.819-14.713v-88.274zM381.702 65.476c0-8.137-6.639-14.711-14.819-14.711h-88.911c-8.18 0-14.819 6.575-14.819 14.711v88.277c0 8.137 6.639 14.711 14.819 14.711h88.911c8.18 0 14.819-6.575 14.819-14.711v-88.277zM381.702 212.604c0-8.137-6.639-14.711-14.819-14.711h-88.911c-8.18 0-14.819 6.575-14.819 14.711v88.277c0 8.132 6.639 14.711 14.819 14.711h88.911c8.18 0 14.819-6.579 14.819-14.711v-88.277zM381.702 359.731c0-8.137-6.639-14.716-14.819-14.716h-88.911c-8.18 0-14.819 6.579-14.819 14.716v88.273c0 8.124 6.639 14.716 14.819 14.716h88.911c8.18 0 14.819-6.592 14.819-14.716v-88.273zM381.702 506.859c0-8.124-6.639-14.716-14.819-14.716h-88.911c-8.18 0-14.819 6.592-14.819 14.716v88.274c0 8.122 6.639 14.713 14.819 14.713h88.911c8.18 0 14.819-6.591 14.819-14.713v-88.274zM529.886 65.476c0-8.137-6.639-14.711-14.818-14.711h-88.91c-8.18 0-14.819 6.575-14.819 14.711v58.982h29.638v-44.271h59.273v73.566h29.636v-88.277zM678.071 65.476c0-8.137-6.639-14.711-14.818-14.711h-88.909c-8.179 0-14.818 6.575-14.818 14.711v88.277c0 8.137 6.639 14.711 14.818 14.711h88.909c8.179 0 14.818-6.575 14.818-14.711v-88.277zM826.257 65.476c0-8.137-6.639-14.711-14.818-14.711h-88.909c-8.183 0-14.818 6.575-14.818 14.711v88.277c0 8.137 6.635 14.711 14.818 14.711h88.909c8.179 0 14.818-6.575 14.818-14.711v-88.277zM826.257 212.604c0-8.137-6.639-14.711-14.818-14.711h-88.909c-8.183 0-14.818 6.575-14.818 14.711v88.277c0 8.132 6.635 14.711 14.818 14.711h88.909c8.179 0 14.818-6.579 14.818-14.711v-88.277zM479.279 286.157h-38.319v-58.85h5.658l25.549 50.714c0.713 1.412 1.643 2.705 2.786 3.827l4.326 4.309zM737.348 139.029h59.277v-58.85h-59.277v58.85zM589.188 139.029h59.273v-58.85h-59.273v58.85zM737.348 374.443h59.277v58.85h-8.687l-50.59-50.231v-8.619zM589.188 227.307h59.273v58.85h-8.683l-50.59-50.231v-8.619zM737.348 286.157h59.277v-58.85h-59.277v58.85z" />
<glyph unicode="&#xe93c;" glyph-name="ic_livecasino" d="M891.998 376h-759.998c-49.626 0-90-40.375-90-90.001v-259.998c0-49.626 40.374-90.001 90-90.001h759.998c49.63 0 90.001 40.375 90.001 90.001v259.998c0 49.626-40.371 90.001-90.001 90.001zM268.936 26.176c-22.926-0.128-38.566-0.188-49.34-0.188-22.338 0-23.772 0.247-25.932 0.619-14.402 2.466-24.93 14.955-24.93 29.568v199.829c0 16.572 13.432 30.003 30 30.003s30-13.431 30-30.003v-169.988c12 0.026 26.296 0.081 39.866 0.158h0.172c16.49 0 29.904-13.321 29.996-29.833 0.092-16.567-13.264-30.071-29.832-30.165zM408.778 56.004c0-16.567-13.432-29.999-30-29.999s-30 13.431-30 29.999v200c0 16.572 13.432 30.003 30 30.003s30-13.431 30-30.003v-200zM659.46 246.182l-65.301-196.574c-0.021-0.068-0.047-0.137-0.068-0.205-4.727-13.897-17.766-23.296-32.444-23.394-0.081-0.004-0.158-0.004-0.235-0.004-14.583 0-27.631 9.203-32.521 22.963-0.026 0.068-0.047 0.132-0.073 0.205l-68.378 196.996c-5.436 15.65 2.85 32.742 18.5 38.178 15.654 5.423 32.747-2.854 38.178-18.505l43.763-126.076 41.634 125.329c5.227 15.727 22.204 24.239 37.931 19.012 15.723-5.222 24.235-22.204 19.012-37.926zM819.051 186.005c16.567 0 30.003-13.431 30.003-29.999s-13.436-29.999-30.003-29.999h-48.055v-40h54.272c16.567 0 29.999-13.431 29.999-30.003 0-16.567-13.431-29.999-29.999-29.999h-84.275c-16.567 0-29.999 13.431-29.999 29.999v200c0 16.572 13.431 30.003 29.999 30.003h84.275c16.567 0 29.999-13.431 29.999-30.003 0-16.567-13.431-29.999-29.999-29.999h-54.272v-40h48.055zM852.531 763.801l-99.213 26.585v-342.787c0-28.796-19.558-53.094-46.080-60.356l2.59-9.664c8.956-33.408-10.842-67.691-44.25-76.642l-72.986-19.554 109.734 46.613c-12.19 79.283 48.009-11.127 50.991 0l113.963 410.258c2.982 11.127-3.622 22.564-14.75 25.547zM669.53 366.784l-4.885 18.236h-331.388c-34.506 0-62.578 28.070-62.578 62.579v342.787l-99.214-26.585c-11.128-2.982-17.732-14.419-14.75-25.547l127.218-474.791c24.065 77.773 38.196 43.554 49.324 46.532l321.524 31.241c11.127 2.982 17.732 14.421 14.75 25.549zM333.263 426.739h357.481c11.52 0 20.86 9.34 20.86 20.86v491.542c0 11.52-9.34 20.859-20.86 20.859h-357.481c-11.52 0-20.859-9.339-20.859-20.859v-491.542c0-11.52 9.339-20.86 20.859-20.86zM574.711 551.719l22.34 22.345c8.149 8.146 21.355 8.146 29.5 0 0 0 22.34-22.342 22.345-22.343 8.145-8.146 8.145-21.353 0-29.498s-21.355-8.145-29.5 0l-7.59 7.595-7.595-7.595c-8.145-8.149-21.355-8.149-29.5 0-8.145 8.145-8.145 21.352 0 29.496zM375.111 864.52c8.146 8.146 21.353 8.146 29.498 0l7.594-7.594 7.593 7.593c8.146 8.146 21.352 8.146 29.497 0 8.149-8.146 8.149-21.353 0-29.498 0-0.003-22.345-22.343-22.345-22.343-8.145-8.146-21.352-8.146-29.497 0l-22.34 22.343c-8.145 8.146-8.145 21.353 0 29.499z" />
<glyph unicode="&#xe93d;" glyph-name="ic_lode" d="M239.108 291.968c-132.052 0-239.108 108.791-239.108 243.001 0 134.202 107.056 243 239.108 243 132.060 0 239.108-108.798 239.108-243 0-134.209-107.048-243.001-239.108-243.001zM239.103 440.627c74.408 0 134.718 61.303 134.718 136.912 0 75.619-60.311 136.919-134.718 136.919-74.4 0-134.718-61.3-134.718-136.919 0-75.608 60.319-136.912 134.718-136.912zM243.788 594.008c-0.628-0.639-0.314-1.752 0.781-1.908 19.398-0.638 32.536-14.154 32.383-32.754 0-23.209-16.739-38.313-39.27-38.313-15.33 0.155-29.096 6.042-35.355 20.188-2.505 5.567-0.467 10.651 5.003 13.041 4.857 1.908 10.013 1.269 12.204-3.659 4.068-8.105 9.546-11.289 18.616-11.289 10.955 0 17.528 7.949 17.835 18.444 0.628 17.65-15.482 19.877-29.411 18.125-3.754-0.474-7.346 2.071-8.603 5.886-1.716 4.134-0.153 8.105 2.505 11.125l14.863 16.218c1.877 2.382 3.754 3.971 6.098 6.042h-31.593c-5.325 0-6.734 4.609-6.734 9.382 0 4.928 1.409 9.537 6.734 9.537h53.81c5.325 0 6.42-4.134 6.259-9.537-0.153-3.815-2.191-6.197-4.221-8.588l-21.903-21.94zM489.532-42.662c-132.059 0-239.107 108.796-239.107 243.008 0 134.199 107.048 242.999 239.107 242.999 132.062 0 239.108-108.8 239.108-242.999 0-134.212-107.046-243.008-239.108-243.008zM489.536 63.42c74.406 0 134.716 61.299 134.716 136.917 0 75.614-60.309 136.913-134.716 136.913-74.409 0-134.72-61.299-134.72-136.913 0-75.618 60.311-136.917 134.72-136.917zM784.892 452.668c-132.062 0-239.108 108.79-239.108 242.999 0 134.201 107.046 243 239.108 243 132.053 0 239.108-108.799 239.108-243 0-134.209-107.055-242.999-239.108-242.999zM784.879 515.191c74.398 0 134.72 61.3 134.72 136.919 0 75.611-60.322 136.911-134.72 136.911-74.406 0-134.72-61.3-134.72-136.911 0-75.619 60.314-136.919 134.72-136.919zM410.445 160.482c0 6.357 2.973 10.018 5.155 12.719 9.232 10.807 19.407 18.756 30.351 27.345 8.917 6.989 18.15 15.74 18.15 25.28 0 10.65-6.413 16.691-17.37 16.691-7.821 0-13.918-4.446-15.957-13.35-1.246-5.568-6.257-7.313-11.26-6.682-5.164 0.482-7.822 2.701-7.822 8.269 1.257 19.874 17.366 30.37 35.039 30.37 20.971 0 38.336-10.338 38.336-32.909 0-16.7-10.010-27.187-22.063-37.21-8.755-7.309-18.615-13.99-26.125-21.781-0.627-0.631-0.627-1.745 0.631-1.745h41.451c5.163 0 6.575-4.774 6.575-9.536 0-4.774-1.412-9.545-6.575-9.545h-58.038c-8.136 0-10.48 2.701-10.48 12.083zM496.503 196.727c0 30.686 18.931 58.355 48.188 65.348 5.47 1.267 10.479-0.158 13.453-5.248 2.97-5.094 0.781-9.22-4.698-10.816-13.918-3.814-28.945-12.557-34.261-27.981 5.167 3.977 12.207 5.722 18.778 5.722 21.124 0 34.889-16.691 34.889-37.995 0-21.781-16.119-38.95-38.174-38.95-28.314 0-38.174 23.693-38.174 49.92zM517.777 184.802c0-9.694 5.478-20.983 16.738-20.983 12.053 0 17.527 10.807 17.527 21.466 0 11.763-4.847 20.032-17.212 20.032-11.729 0-17.054-10.338-17.054-20.514zM807.241 708.635c5.325 0 6.571-4.609 6.571-9.382s-1.246-9.701-6.571-9.701h-32.384c-2.342 0-2.496-0.794-2.974-3.176l-1.877-13.516c-0.627-3.971 1.259-4.609 4.386-3.971 26.283 5.084 48.499-5.567 48.183-35.136-0.158-23.053-15.957-38.157-38.639-38.157-15.339 0-29.41 6.042-35.669 20.663-2.355 5.248-0.943 9.226 4.535 11.772 5.163 2.382 10.010 1.908 13.137-3.021 4.535-7.474 9.233-11.453 18.304-11.453 11.106 0 17.365 8.907 17.365 19.238 0.162 19.558-19.712 24.649-35.985 18.608-8.448-3.021-18.615 0.475-17.050 11.445l4.075 31.477c1.399 10.651 3.277 14.31 12.356 14.31h42.236z" />
<glyph unicode="&#xe93e;" glyph-name="ic_lottery" d="M360 239.979c-9.969-0.764-19.828-1.967-30-1.967s-20.032 1.203-30 1.967v-61.969h60v61.969zM300-34.001c0-16.555 13.445-29.999 30-29.999s30 13.444 30 29.999c0 16.555-13.445 29.999-30 29.999s-30-13.444-30-29.999zM660.002-63.991v485.116c-53.649-85.257-139.362-148.015-240.002-172.036v-11.081h119.998v-59.998h-119.998v-60.002h-180v131.085c-100.64 24.017-186.351 86.775-240 172.032v-485.116h245.524c-3.36 9.429-5.524 19.43-5.524 29.999 0 49.626 40.375 90.001 90 90.001s90-40.375 90-90.001c0-10.569-2.164-20.57-5.524-29.999h245.526zM300.005 508.727v89.272h-285.016c41.32-43.367 163.133-83.436 285.016-89.272zM300.005 658.008v89.273c-121.883-5.836-243.695-45.906-285.016-89.273h285.016zM360 658.008h285.018c-41.323 43.367-163.136 83.437-285.018 89.273v-89.273zM360 508.727c121.882 5.837 243.695 45.897 285.018 89.272h-285.018v-89.272zM16.451 730.354c69.805 43.094 177.875 72.14 283.547 76.867v151.258c-133.008-12.055-243.344-105.289-283.547-228.125zM360 299.533c133.009 12.053 243.345 103.287 283.546 226.125-69.803-43.093-177.873-72.141-283.546-76.868v-149.257zM360 958.479v-151.258c105.673-4.727 213.743-33.773 283.546-76.867-40.201 122.836-150.537 216.070-283.546 228.125zM299.997 448.789c-105.672 4.727-213.742 33.775-283.547 76.868 40.203-122.837 150.539-214.071 283.547-226.125v149.257zM749.995 477.999c49.626 0 90.001 40.375 90.001 90.001v215.523c34.842 12.43 59.998 45.414 59.998 84.477 0 49.625-40.375 92-89.997 92-49.626 0-90.001-42.375-90.001-92 0-39.063 25.156-72.047 59.998-84.477v-125.523h-61.521c0.764-9.938 1.523-19.875 1.523-30 0-53.14-10.761-103.789-30.089-150.001h60.087z" />
<glyph unicode="&#xe93f;" glyph-name="ic_nohu" d="M260 128h260v-59.998h-260v59.998zM0 260.002v-294.003c0-16.567 13.432-29.999 30-29.999h719.999c16.567 0 29.999 13.431 29.999 29.999v294.003h-779.998zM580.002 37.999c0-16.567-13.436-29.999-30.003-29.999h-319.999c-16.568 0-30 13.431-30 29.999v120c0 16.567 13.432 29.999 30 29.999h319.999c16.567 0 30.003-13.431 30.003-29.999v-120zM549.999 960h-319.999c-127.026 0-230-102.974-230-230v-90h90v70c0 88.366 71.634 160 160 160h280.001c88.367 0 160-71.634 160-160v-70h89.997v90c0 127.026-102.972 230-229.999 230zM280 580v-260h220.002v260h-220.002zM420 389.999c0-16.567-13.432-29.999-30-29.999s-30 13.431-30 29.999v120c0 16.567 13.432 30.001 30 30.001s30-13.434 30-30.001v-120zM560 580v-260h219.998v260h-219.998zM699.998 389.999c0-16.567-13.431-29.999-29.999-29.999s-29.999 13.431-29.999 29.999v120c0 16.567 13.431 30.001 29.999 30.001s29.999-13.434 29.999-30.001v-120zM0 580v-260h220v260h-220zM140 389.999c0-16.567-13.432-29.999-30-29.999s-30 13.431-30 29.999v120c0 16.567 13.432 30.001 30 30.001s30-13.434 30-30.001v-120zM964.002 509.999h-124.002v-120h124.002c33.135 0 59.998 26.863 59.998 60.002 0 33.135-26.863 59.998-59.998 59.998zM994.001 566.219v77.594c-9.591-2.478-19.644-3.798-29.999-3.798-10.359 0-20.412 1.32-30.003 3.798v-73.796h30.003c10.355 0 20.407-1.32 29.999-3.798zM964.002 700c-33.088 0-60.002 26.916-60.002 60s26.914 60 60.002 60c33.084 0 59.998-26.916 59.998-60s-26.914-60-59.998-60zM530.001 810h-280.001c-55.228 0-100-44.772-100-100v-70h479.999v70c0 55.228-44.77 100-99.998 100zM469.999 695h-159.999c-16.568 0-30 13.432-30 30s13.432 30 30 30h159.999c16.567 0 30.003-13.432 30.003-30s-13.436-30-30.003-30z" />
<glyph unicode="&#xe940;" glyph-name="ic_numbergame" d="M860.727 910.956l-39.386 42.664c-7.625 8.403-20.092 8.521-27.849 0.262-0.666-0.708-1.284-1.466-1.847-2.268-35.337-45.895-86.699-73.806-141.79-77.048-37.764 2.050-74.236 15.576-105.237 39.036-38.788 28.505-84.228 44.551-131.073 46.289-65.549-5.417-127.723-33.658-177.234-80.503v59.172c0 11.781-8.817 21.332-19.693 21.332h-78.769c-10.876 0-19.693-9.551-19.693-21.332v-426.619c0-11.78 8.817-21.333 19.693-21.333h78.771c10.876 0 19.693 9.553 19.693 21.333v85.324c0 44.283 18.235 63.993 59.078 63.993 16.232-1.834 32.144-6.144 47.262-12.799 47.914-19.272 98.553-29.377 149.664-29.863 32.806-0.44 65.583 2.258 97.954 8.063-29.815-55.46-86.097-147.311-146.398-181.099-100.588-56.358-207.56-246.63-207.56-488.226 0-11.78 8.817-21.333 19.693-21.333h393.853c10.876 0.009 19.686 9.562 19.678 21.342 0 2.748-0.491 5.466-1.442 8.009-23.125 65.66-35.942 135.049-37.931 205.291 0 106.995 174.912 645.051 231.074 710.795 7.159 8.399 6.933 21.42-0.512 29.521z" />
<glyph unicode="&#xe941;" glyph-name="ic_quayso" d="M964.006 960h-420.002c-33.139 0-60.002-26.862-60.002-60v-267.342l212.663-212.66h267.341c33.139 0 60.002 26.859 60.002 59.998v420.004c0 33.138-26.863 60-60.002 60zM638.14 775.863c-16.567 0-29.999 13.432-29.999 30s13.431 30 29.999 30c16.567 0 29.999-13.432 29.999-30s-13.431-30-29.999-30zM754.005 659.998c-16.567 0-29.999 13.432-29.999 30s13.431 30 29.999 30c16.567 0 29.999-13.432 29.999-30s-13.431-30-29.999-30zM869.858 544.145c-16.567 0-29.999 13.432-29.999 30s13.431 30 29.999 30c16.567 0 29.999-13.432 29.999-30s-13.431-30-29.999-30zM696.401 335.407l-296.986 296.988c-23.432 23.432-61.423 23.432-84.852 0l-296.988-296.988c-23.432-23.433-23.432-61.423 0-84.851l296.986-296.986c23.432-23.433 61.423-23.433 84.853 0l296.988 296.986c23.433 23.428 23.433 61.419 0 84.851zM229.708 250.556c-11.716-11.716-30.711-11.716-42.426 0-11.716 11.712-11.716 30.707 0 42.423s30.71 11.716 42.426 0c11.716-11.712 11.716-30.711 0-42.423zM272.134 335.407c-11.716 11.716-11.716 30.711 0 42.428s30.711 11.716 42.426 0c11.716-11.716 11.716-30.711 0-42.428s-30.71-11.716-42.426 0zM356.987 123.277c-11.716-11.716-30.71-11.716-42.426 0-11.716 11.712-11.716 30.707 0 42.423s30.71 11.716 42.426 0c11.716-11.716 11.716-30.711 0-42.423zM356.987 420.262c-11.716 11.716-11.716 30.707 0 42.423s30.71 11.716 42.426 0c11.716-11.716 11.716-30.707 0-42.423-11.714-11.716-30.711-11.716-42.426 0zM441.843 208.128c-11.716-11.716-30.712-11.716-42.428 0s-11.716 30.711 0 42.428c11.716 11.712 30.712 11.712 42.428 0 11.716-11.716 11.716-30.711 0-42.428zM526.694 292.979c-11.716-11.716-30.711-11.716-42.428 0s-11.716 30.711 0 42.428c11.716 11.716 30.711 11.716 42.428 0s11.716-30.711 0-42.428z" />
<glyph unicode="&#xe942;" glyph-name="ic_sabaclub" d="M775.168 284.245l-122.283 120.235-448.896-442.667 571.178 322.432zM775.168 611.537l-571.178 322.432 448.896-442.666 122.283 120.234zM954.15 387.115c36.608 28.587 36.608 93.013-2.432 121.6l-119.808 68.181-133.675-129.024 133.675-129.024 122.24 68.267zM86.787-64l521.986 512.085-521.986 511.915c-26.411-13.611-44.117-38.4-44.117-70.613v-882.773c0-32.213 17.707-57.003 44.117-70.613z" />
<glyph unicode="&#xe943;" glyph-name="ic_songbaiao" d="M281.294 695.68c59.545 55.68 137.237 87.918 218.708 90.752v139.422c-118.508-2.636-231.737-49.539-317.398-131.476l98.69-98.698zM264.323 678.706l-98.698 98.69c-81.937-85.661-128.84-198.89-131.476-317.398h139.422c2.833 81.471 35.071 159.163 90.752 218.708zM173.571 436.002h-139.422c2.636-118.511 49.539-231.74 131.476-317.402l98.698 98.697c-55.679 59.546-87.916 137.233-90.752 218.705zM841.399 794.378c-85.662 81.937-198.891 128.84-317.402 131.476v-139.422c81.476-2.833 159.168-35.071 218.714-90.752l98.688 98.698zM759.684 678.706c55.68-59.545 87.915-137.237 90.752-218.708h139.422c-2.637 118.508-49.54 231.737-131.477 317.398l-98.697-98.69zM182.604 101.623c85.661-81.937 198.89-128.841 317.398-131.473v139.422c-81.471 2.833-159.163 35.072-218.708 90.752l-98.69-98.701zM511.94 607.781l-123.941-125.046c-7.657-7.578-13.742-16.597-17.904-26.534-4.163-9.933-6.321-20.595-6.35-31.369s2.069-21.444 6.176-31.407c4.108-9.958 10.142-19.008 17.757-26.628s16.661-13.662 26.618-17.775c9.957-4.113 20.63-6.217 31.403-6.195 10.769 0.021 21.431 2.172 31.373 6.327 9.937 4.156 18.961 10.236 26.543 17.89 1.173 1.173 2.573 2.091 4.122 2.692 1.545 0.606 3.196 0.879 4.855 0.811l0.858-0.034c2.948-0.119 5.751-1.327 7.868-3.383 15.492-15.027 36.301-23.317 57.882-23.070s42.189 9.020 57.331 24.401c15.142 15.381 23.59 36.126 23.501 57.711-0.090 21.581-8.708 42.253-23.979 57.51l-124.113 124.099zM496.559 289.152c10.24 1.468 20.634 1.468 30.874 0l-15.437 35.349-15.437-35.349zM826.671 448c0 173.509-141.158 314.667-314.667 314.667s-314.666-141.158-314.666-314.667c0-173.508 141.158-314.667 314.666-314.667s314.667 141.158 314.667 314.667zM653.026 351.053c-14.976-14.967-34.099-25.101-54.891-29.090-20.796-3.989-42.308-1.651-61.764 6.711l23.002-52.655c0.951-2.18 1.237-4.599 0.811-6.942-0.422-2.342-1.532-4.506-3.191-6.217-1.655-1.707-3.785-2.884-6.11-3.383-2.33-0.495-4.753-0.29-6.963 0.597-20.476 8.226-43.341 8.226-63.817 0-2.21-0.887-4.634-1.092-6.963-0.597-2.325 0.499-4.454 1.677-6.11 3.383-1.66 1.711-2.769 3.874-3.191 6.217-0.427 2.342-0.141 4.762 0.811 6.942l22.46 51.426c-22.605-9.583-47.842-11.004-71.379-4.023-23.538 6.985-43.916 21.935-57.64 42.291-13.724 20.361-19.941 44.855-17.585 69.295s13.138 47.296 30.499 64.657l132.385 133.568c1.114 1.123 2.436 2.015 3.895 2.625s3.021 0.926 4.604 0.929h0.026c3.183 0 6.234-1.264 8.482-3.514l132.638-132.622c19.806-19.857 30.925-46.758 30.925-74.803s-11.127-54.942-30.933-74.795zM523.998 109.572v-139.422c118.511 2.633 231.74 49.536 317.402 131.473l-98.697 98.701c-59.546-55.68-137.233-87.919-218.705-90.752zM759.684 217.289l98.697-98.688c81.937 85.662 128.841 198.891 131.477 317.402h-139.422c-2.837-81.476-35.072-159.168-90.752-218.714z" />
<glyph unicode="&#xe944;" glyph-name="ic_thethaoao" d="M522.667 482.91c-15.505 0-28.126-15.663-28.126-34.91s12.621-34.91 28.126-34.91c15.505 0 28.126 15.663 28.126 34.91s-12.621 34.91-28.126 34.91zM680.354 448c0 203.985 128.533 372.643 292.629 383.953 0.508 0.023 1.033 0.047 1.557 0.047h-423.748v-285.277c32.738-14.384 56.247-53.223 56.247-98.723s-23.509-84.339-56.247-98.722v-285.278h423.748c-0.525 0-1.050 0.021-1.557 0.047-164.096 11.332-292.629 179.968-292.629 383.953zM890.167 482.91v-69.82h112.499v69.82h-112.499zM862.042 552.727h140.625v209.455h-27.319c-133.931-9.728-238.741-147.549-238.741-314.182 0-166.635 104.811-304.452 238.741-314.18h27.319v209.455h-140.625c-15.526 0-28.126 15.637-28.126 34.906v139.639c0 19.268 12.599 34.908 28.126 34.908zM494.541 546.723v285.277h-423.749c0.525 0 1.050-0.023 1.556-0.047 164.1-11.311 292.631-179.968 292.631-383.953s-128.531-372.621-292.631-383.953c-0.506-0.026-1.031-0.047-1.556-0.047h423.749v285.278c-32.738 14.383-56.247 53.222-56.247 98.722s23.509 84.339 56.247 98.723zM42.667 482.91v-69.82h112.5v69.82h-112.5zM69.985 762.182h-27.319v-209.455h140.625c15.525 0 28.125-15.639 28.125-34.908v-139.639c0-19.268-12.6-34.906-28.125-34.906h-140.625v-209.455h27.319c133.932 9.728 238.744 147.546 238.744 314.18s-104.812 304.454-238.744 314.182z" />
<glyph unicode="&#xe945;" glyph-name="ic_trochoiao" d="M932.446 661.059c-135.253 237.627-338.995 72.307-338.995 72.307-13.214-10.68-37.581-19.46-54.135-19.501l-54.575-0.041c-16.555-0.020-40.922 8.76-54.114 19.44 0 0-203.767 165.361-339.037-72.266-135.232-237.544-80.734-496.245-80.734-496.245 9.548-63.343 41.016-105.613 100.402-100.305 59.215 5.291 187.744 170.59 187.744 170.59 10.617 13.619 32.863 24.747 49.38 24.747l327.177 0.064c16.538 0 38.763-11.132 49.361-24.751 0 0 128.55-165.299 187.857-170.586 59.311-5.312 90.854 37.001 100.348 100.301-0.021 0 54.575 258.658-80.678 496.247zM389.054 467.639h-70.156v-72.307c0 0-14.856-12.126-37.847-11.823-22.953 0.371-33.34 13.235-33.34 13.235v70.878h-66.26c0 0-8.268 9.067-10.483 32.934-2.177 23.872 9.147 43.169 9.147 43.169h70.175v75.023c0 0 14.436 8.27 35.192 7.637 20.776-0.695 35.994-9.046 35.994-9.046l-0.286-73.594h66.26c0 0 11.572-15.887 12.526-35.083 0.955-19.213-10.922-41.024-10.922-41.024zM710.848 385.225c-30.724 0-55.492 26.569-55.492 59.383 0 32.875 24.768 59.379 55.492 59.379 30.588 0 55.548-26.505 55.548-59.379 0-32.836-24.96-59.383-55.548-59.383zM710.848 548.607c-30.724 0-55.492 26.546-55.492 59.361 0 32.876 24.768 59.381 55.492 59.381 30.588 0 55.548-26.505 55.548-59.381 0-32.835-24.96-59.361-55.548-59.361zM849.135 460.902c-30.724 0-55.492 26.547-55.492 59.383 0 32.854 24.768 59.38 55.492 59.38 30.588 0 55.548-26.526 55.548-59.38 0-32.836-24.96-59.383-55.548-59.383z" />
<glyph unicode="&#xe946;" glyph-name="logout_mb" horiz-adv-x="1240" d="M0 755.515v-615.027c0-56.627 25.937-106.965 67.436-146.286 41.499-37.753 95.102-58.201 157.351-58.201h338.909v127.413h-338.909c-46.686 0-82.998 34.6-82.998 77.075v615.027c0 42.47 36.312 75.502 82.998 75.502h338.909v128.983h-338.909c-62.248 0-115.852-22.021-157.351-59.772-41.499-39.324-67.436-88.086-67.436-144.713zM371.763 569.905v-245.383c0-28.311 27.666-51.906 58.791-51.906h312.973v-193.477c0-17.3 10.375-31.458 27.664-39.322 6.92-1.574 13.835-1.574 17.295-1.574 12.105 0 22.479 3.147 31.124 11.011l406.345 369.648c19.019 14.154 17.289 42.468 0 58.198l-406.345 368.074c-24.21 23.595-76.083 9.438-76.083-28.313v-195.048h-312.973c-31.124 0-58.791-23.595-58.791-51.908z" />
<glyph unicode="&#xe947;" glyph-name="ic_withdrawal_bank_mb" horiz-adv-x="1073" d="M1028.72 729.105v52.752l-396.737-52.752h396.737zM444.514 9.762h-365.152v-73.782h365.152v73.782zM992.236 871.333l-452.969-117.309 452.969 60.13v57.179zM261.917 692.238v-323.34l129.811 135.756c12.542 12.646 28.435 21.359 45.765 25.089s35.359 2.32 51.911-4.063c12.298 39.82 37.595 74.251 71.763 97.666 34.172 23.415 75.191 34.431 116.361 31.247 41.165-3.184 80.048-20.38 110.29-48.778s50.059-66.317 56.208-107.564c6.154-41.247-1.726-83.382-22.348-119.519s-52.76-64.141-91.175-79.438c-38.415-15.292-80.823-16.974-120.305-4.769-39.483 12.21-73.694 37.581-97.056 71.977l-115.936-116.941h668.042v442.675h-803.331zM426.235 636.904h-38.834c-3.286-12.749-9.879-24.381-19.1-33.696s-20.735-15.976-33.354-19.296v-39.232h-36.515v55.334c0 4.892 1.924 9.584 5.348 13.043s8.068 5.402 12.91 5.402c9.684 0 18.972 3.886 25.82 10.805s10.695 16.301 10.695 26.085c0 4.892 1.924 9.584 5.348 13.043s8.068 5.402 12.91 5.402h54.773v-36.89zM1028.735 360.233c0-4.896-1.926-9.587-5.349-13.044-3.423-3.462-8.065-5.403-12.907-5.403-9.684 0-18.973-3.886-25.819-10.806-6.851-6.919-10.698-16.301-10.698-26.083 0-4.896-1.921-9.587-5.344-13.044-3.428-3.457-8.070-5.403-12.912-5.403h-54.774v36.888h38.834c3.287 12.751 9.879 24.381 19.1 33.699 9.221 9.314 20.738 15.974 33.353 19.295v39.229h36.518v-55.33zM1028.735 526.235h-36.518v39.232c-12.615 3.32-24.132 9.981-33.353 19.296s-15.813 20.947-19.1 33.696h-38.834v36.889h54.774c4.842 0 9.484-1.943 12.912-5.402 3.423-3.459 5.344-8.151 5.344-13.042 0-9.784 3.847-19.167 10.698-26.085 6.846-6.918 16.135-10.805 25.819-10.805 4.842 0 9.484-1.943 12.907-5.402s5.349-8.151 5.349-13.042v-55.335zM663.586 323.36c27.468-0.034 54.394 7.753 77.678 22.479 23.284 14.721 41.989 35.781 53.96 60.757 11.976 24.976 16.735 52.858 13.736 80.444-3.004 27.586-13.644 53.757-30.7 75.509-17.062 21.752-39.843 38.204-65.741 47.466-25.893 9.262-53.848 10.959-80.657 4.896-26.804-6.063-51.376-19.64-70.89-39.172s-33.182-44.229-39.429-71.252c12.878-13.234 21.528-30.069 24.83-48.325 0.731-5.905 1.278-10.698 1.458-15.677-0.302-14.887-3.92-29.516-10.586-42.793 12.624-22.611 30.983-41.413 53.189-54.482 22.206-13.063 47.455-19.914 73.153-19.851zM663.586 452.471c-12.907-0.024-25.405 4.569-35.279 12.961-9.874 8.39-16.491 20.042-18.681 32.891-2.185 12.849 0.2 26.065 6.734 37.308s16.794 19.786 28.969 24.117v21.839h36.513v-21.839c10.645-3.801 19.861-10.831 26.4-20.129 6.534-9.297 10.069-20.408 10.118-31.812h-36.518c0 3.648-1.068 7.214-3.077 10.247-2.004 3.033-4.857 5.397-8.192 6.794s-7.007 1.761-10.552 1.049c-3.54-0.711-6.793-2.468-9.348-5.048-2.55-2.58-4.291-5.866-4.993-9.444-0.707-3.578-0.346-7.286 1.039-10.657 1.38-3.37 3.721-6.251 6.724-8.278 2.999-2.027 6.529-3.108 10.142-3.108 12.902 0.024 25.4-4.566 35.279-12.958 9.874-8.393 16.491-20.043 18.681-32.891 2.185-12.849-0.2-26.068-6.734-37.308-6.534-11.244-16.798-19.788-28.969-24.118v-21.84h-36.513v21.84c-10.645 3.799-19.866 10.83-26.4 20.129-6.539 9.294-10.069 20.407-10.118 31.812h36.518c0-3.647 1.068-7.217 3.077-10.25 2.004-3.033 4.857-5.398 8.192-6.793s7.007-1.76 10.547-1.048c3.545 0.712 6.797 2.467 9.348 5.047 2.555 2.58 4.296 5.866 4.998 9.445 0.707 3.574 0.341 7.285-1.039 10.654s-3.721 6.251-6.724 8.28c-3.004 2.024-6.534 3.106-10.142 3.106zM426.231 46.67v46.295c0.053 12.142-2.294 24.171-6.903 35.382s-11.386 21.382-19.936 29.915l-59.155 59.758 0.183 0.185c-1.742 1.653-3.112 3.667-4.017 5.905-1.398 3.36-1.78 7.061-1.098 10.64 0.683 3.574 2.399 6.871 4.932 9.465l155.008 156.594c10.167 10.44 15.926 24.459 16.067 39.102-0.185 2.955-0.551 6.641-0.917 10.333-1.921 9.845-6.456 18.978-13.112 26.427-6.661 7.448-15.195 12.932-24.695 15.866s-19.611 3.21-29.254 0.796c-9.643-2.414-18.457-7.425-25.502-14.501l-161.032-168.218c-2.521-2.687-5.784-4.549-9.366-5.339s-7.317-0.473-10.717 0.912c-3.34 1.429-6.193 3.818-8.205 6.866s-3.095 6.627-3.115 10.289v387.342c0 4.892 1.923 9.584 5.347 13.043s8.068 5.402 12.91 5.402h44.366l84.532 147.927c4.765 8.361 7.282 17.836 7.303 27.483-0.014 8.479-1.949 16.842-5.657 24.449s-9.089 14.255-15.733 19.436c-6.644 5.181-14.374 8.757-22.597 10.454s-16.721 1.47-24.844-0.664c-6.951-1.876-13.467-5.124-19.17-9.556s-10.481-9.961-14.059-16.267l-227.489-398.224c-4.928-8.368-7.515-17.931-7.485-27.668v-228.16c0.027-5.169 0.702-10.313 2.008-15.311l61.163-216.357h320.238z" />
<glyph unicode="&#xe948;" glyph-name="ic_withdrawal_card_mb" d="M816.274 696.085c15.36 0 19.69 20.118 5.842 26.195l-540.741 232.196c-32.89 14.25-71.623 0-86.337-32.063l-189.335-411.162c-14.714-31.854 0-69.365 33.107-83.614l109.057-45.685c13.632-5.871 29.211 3.769 29.211 18.232v174.564c0 66.851 56.044 121.127 125.069 121.127l514.127 0.21zM957.781 639.095h-655.854c-36.569 0-66.213-28.711-66.213-64.126v-448.676c0-35.416 29.645-64.127 66.213-64.127h88.068c-2.164 12.576-3.246 25.361-3.246 38.351 0 14.668 1.515 28.921 4.112 42.959h-70.974v214.806h620.155v-214.596h-71.192c2.599-14.039 4.111-28.292 4.111-42.959 0-12.99-1.083-25.776-3.243-38.351h88.064c36.571 0 66.214 28.711 66.214 64.127v448.466c0 35.416-29.642 64.126-66.214 64.126zM940.042 490.515h-620.155v67.27h620.155v-67.27zM629.999 265.431c-93.911 0-170.076-73.767-170.076-164.718s76.166-164.718 170.076-164.718c93.911 0 170.077 73.767 170.077 164.718s-76.166 164.718-170.077 164.718zM678.902 35.747c-7.358-8.802-17.096-14.668-28.345-17.603-4.979-1.258-7.144-3.774-6.924-8.802 0.215-4.818 0-9.64 0-14.668 0-4.403-2.38-6.71-6.71-6.71-5.408-0.21-10.82-0.21-16.228 0-4.759 0-6.924 2.726-6.924 7.129 0 3.56 0 7.124 0 10.684 0 7.753-0.434 8.172-8.221 9.431-9.957 1.468-19.69 3.774-28.779 7.963-7.144 3.355-8.007 5.032-5.842 12.366 1.512 5.447 3.028 10.898 4.759 16.135 1.946 6.29 3.677 6.919 9.738 3.984 10.167-5.032 20.773-7.963 32.022-9.221 7.144-0.839 14.282-0.21 20.992 2.726 12.546 5.237 14.497 19.276 3.891 27.658-3.677 2.935-7.573 5.032-11.898 6.71-11.035 4.608-22.504 8.172-32.675 14.248-16.876 9.64-27.482 23.055-26.18 42.959 1.297 22.426 14.497 36.254 35.703 43.803 8.655 3.14 8.87 2.931 8.87 11.732 0 2.935 0 6.081 0 9.011 0.215 6.71 1.297 7.753 8.221 7.963 2.165 0 4.33 0 6.276 0 14.716 0 14.716 0 14.716-14.248 0-10.060 0-10.060 10.386-11.527 7.787-1.258 15.36-3.35 22.718-6.495 4.111-1.677 5.627-4.403 4.33-8.592-1.731-6.076-3.462-12.366-5.627-18.232-1.946-5.656-3.896-6.495-9.523-3.984-11.469 5.452-23.367 7.548-35.918 6.919-3.248-0.21-6.49-0.629-9.518-1.887-10.82-4.613-12.771-16.345-3.462-23.474 4.759-3.56 9.952-6.285 15.579-8.592 9.733-3.769 19.256-7.543 28.56-12.571 28.565-15.301 36.571-50.717 16.013-74.815z" />
<glyph unicode="&#xe949;" glyph-name="ic_atm" d="M923.825 848.712h-823.651c-55.238 0-100.174-44.936-100.174-100.174v-133.567c0-55.237 44.936-100.172 100.174-100.172h100.174v-367.306c0-55.237 44.936-100.172 100.174-100.172h422.956c55.237 0 100.175 44.935 100.175 100.172v367.306h100.172c55.24 0 100.175 44.935 100.175 100.172v133.567c0 55.238-44.935 100.174-100.175 100.174zM400.697 214.277c0-18.435-14.947-33.392-33.395-33.392-18.444 0-33.392 14.957-33.392 33.392v66.78c0 18.435 14.947 33.392 33.392 33.392 18.448 0 33.395-14.957 33.395-33.392v-66.78zM400.697 414.624c0-18.435-14.947-33.392-33.395-33.392-18.444 0-33.392 14.957-33.392 33.392v66.783c0 18.432 14.947 33.392 33.392 33.392 18.448 0 33.395-14.96 33.395-33.392v-66.783zM623.303 114.102h-66.78v534.261h66.78v-534.261zM957.217 614.971c0-18.41-14.978-33.392-33.392-33.392h-100.172v66.783h33.392c18.444 0 33.392 14.958 33.392 33.391s-14.947 33.392-33.392 33.392h-690.088c-18.446 0-33.392-14.958-33.392-33.392s14.946-33.391 33.392-33.391h33.392v-66.783h-100.174c-18.412 0-33.392 14.981-33.392 33.392v133.567c0 18.412 14.98 33.392 33.392 33.392h823.651c18.413 0 33.392-14.98 33.392-33.392v-133.567z" />
<glyph unicode="&#xe94a;" glyph-name="ic_internetbanking" d="M977.026 29.091h-930.49c-25.708 0-46.536-20.837-46.536-46.58 0-25.699 20.828-46.539 46.536-46.539h930.468c25.709 0 46.536 20.84 46.536 46.539-0.022 25.743-20.849 46.58-46.514 46.58zM104.728 150.165c-25.709 0-46.536-20.84-46.536-46.561s20.828-46.58 46.536-46.58h814.169c25.709 0 46.539 20.859 46.539 46.58s-20.831 46.561-46.539 46.561h-11.612v418.94h11.612c12.878 0 23.248 10.42 23.248 23.257 0 12.84-10.414 23.26-23.248 23.26h-814.169c-12.854 0-23.247-10.42-23.247-23.26 0-12.837 10.414-23.257 23.247-23.257h11.634v-418.918h-11.634v-0.022zM814.213 569.105v-418.918h-139.565v418.918h139.565zM581.573 569.105v-418.918h-139.565v418.918h139.565zM209.391 569.105h139.566v-418.918h-139.566v418.918zM46.537 657.466h930.467c0.155 0 0.329 0 0.459 0 25.73 0 46.536 20.838 46.536 46.559 0 20.446-13.16 37.774-31.437 44.052l-461.663 207.836c-12.136 5.449-26.013 5.449-38.17 0l-465.278-209.449c-20.022-9.024-31.024-30.778-26.406-52.226 4.597-21.448 23.551-36.772 45.491-36.772z" />
<glyph unicode="&#xe94b;" glyph-name="ic_momo" d="M31.030 835.879v-806.788c0-34.276 27.785-62.061 62.061-62.061h806.788c34.276 0 62.061 27.785 62.061 62.061v806.788c0 34.275-27.785 62.061-62.061 62.061h-806.788c-34.275 0-62.061-27.785-62.061-62.061zM355.952 95.797l-0.003-0.003c-1.359-0.087-2.576-0.168-3.792-0.168-6.597 0-13.197 0.006-19.794 0.016-19.794 0.022-39.588 0.043-59.381-0.13-5.623-0.115-7 1.607-7 7.121 0.23 63.761 0.23 127.519 0 191.277 0 5.859-1.262 12.291-3.787 17.576-4.934 10.339-17.556 15.394-28.113 12.868-12.393-3.103-20.884-12.409-21.113-24.585-0.246-16.412-0.199-32.824-0.152-49.236 0.019-6.563 0.038-13.129 0.038-19.692 0-10.687-0.007-21.367-0.014-32.042v-0.012c-0.022-32.011-0.043-63.994 0.129-96.039 0-5.399-1.377-7.236-7-7.121-19.964 0.174-39.863 0.152-59.795 0.13-6.646-0.009-13.296-0.016-19.954-0.016-1.099 0-2.24 0.084-3.496 0.174h-0.002c-0.84 0.062-1.732 0.124-2.697 0.171l-0.033 0.658c-0.103 2.036-0.196 3.894-0.196 5.66-0.115 64.45-0.115 129.012-0.115 193.458 0.115 61.806 42.915 111.895 103.961 120.969 30.293 4.481 58.521-2.411 83.994-19.413 3.556-2.414 5.852-2.988 9.868-0.23 71.488 49.053 170.974 7.236 186.005-78.234 1.378-7.469 2.067-15.165 2.181-22.748 0.115-64.676 0.115-129.353 0.115-194.147v-5.973l-1.21-0.118c-1.871-0.183-3.469-0.341-4.987-0.341-6.681 0-13.368 0.006-20.061 0.016h-0.022c-20.080 0.022-40.194 0.043-60.242-0.13-5.163 0-6.883 1.378-6.768 6.777 0.171 48.683 0.149 97.364 0.127 146.044-0.006 16.226-0.012 32.451-0.012 48.677 0 16.316-11.59 28.148-26.965 27.918-15.149-0.23-26.28-12.179-26.391-28.836-0.078-13.166-0.053-26.283-0.028-39.418v0 0-0.034c0.012-6.563 0.028-13.132 0.028-19.71v-133.837c-0.23-2.181-0.23-4.478-0.23-7.121-1.133-0.047-2.144-0.115-3.091-0.174zM119.739 487.148v199.431c0 60.657 40.62 110.055 100.174 120.739 31.441 5.629 60.816-0.919 87.437-18.725 4.017-2.642 6.54-2.757 10.44 0 72.98 49.398 174.071 4.595 186.464-82.484 0.918-6.548 1.263-13.326 1.263-19.989 0.056-32.052 0.056-64.133 0.056-96.212s0-64.161 0.059-96.213v-6.433h-93.175v7.351c0 15.999-0.006 31.992-0.016 47.982v0.022c-0.022 47.948-0.040 95.865 0.13 143.847 0 9.191-2.181 17.002-9.294 23.091-7.804 6.663-16.868 8.157-26.276 4.825-9.526-3.331-15.493-10.339-17.213-20.449-0.574-3.217-0.689-6.433-0.689-9.65v-196.79h-92.486c-0.038 0.825-0.088 1.651-0.137 2.482-0.103 1.71-0.207 3.435-0.207 5.213v190.128c0 8.731-1.492 16.887-8.032 23.091-8.262 7.812-18.13 9.88-28.572 5.629-10.213-4.136-16.294-12.178-16.524-23.436-0.246-14.769-0.199-29.539-0.152-44.307v-0.003c0.019-5.908 0.037-11.816 0.037-17.725v-133.263c-0.229-2.526-0.229-5.052-0.229-8.155h-93.060zM872.944 647.624c-0.115-89.262-72.291-160.948-161.562-160.718-88.7 0.23-160.303 72.605-160.188 161.752 0.115 88.687 72.406 160.487 161.336 160.373 88.697-0.115 160.529-72.374 160.414-161.406zM712.071 580.189c-37.751 0-67.702 29.985-67.702 67.779s29.95 67.779 67.702 67.779c37.751 0 67.699-29.984 67.699-67.779s-29.947-67.779-67.699-67.779zM551.204 260.484c0.804 86.962 74.814 159.108 162.596 157.615 93.175-1.496 161.218-78.348 159.384-166.232-1.952-85.011-75.388-157.041-161.336-156.123-90.878 0.918-161.562 73.408-160.644 164.74zM712.881 324.931c36.948-0.115 67.128-30.788 66.898-68.009-0.23-38.025-30.407-68.239-68.161-68.124-37.522 0.115-67.469 31.018-67.24 69.042 0.344 37.45 30.751 67.32 68.502 67.091z" />
<glyph unicode="&#xe94c;" glyph-name="ic_naptaiquay" d="M1020.453 281.584c-6.805 10.1-20.198 12.735-30.295 5.927l-163.784-107.359h-215.595v90.016h222.183c4.611 0 9.219 1.756 12.732 4.391l169.053 122.067c9.88 7.025 12.074 20.859 4.828 30.518-7.025 9.88-20.855 12.074-30.515 4.828l-163.123-117.897h-215.158v92.21h222.183c4.828-0.217 9.66 1.319 13.61 4.174l169.053 133.263c9.439 7.686 10.975 21.516 3.292 30.956-7.466 9.443-21.076 10.979-30.515 3.733l-163.126-128.214h-214.497v87.819h222.183c5.489 0.22 10.975 2.414 14.929 6.147l169.050 156.756c6.588 6.367 8.782 16.027 5.489 24.589s-11.416 14.271-20.418 14.49h-209.448c-0.217 0-0.658 3.952-1.316 5.708-3.292 8.343-11.416 14.051-20.418 14.051h-335.906c-5.489 0-10.979-2.196-14.932-5.928l-14.708-13.831h-214.278c-5.489-0.219-10.977-2.415-14.929-6.367l-169.051-156.536c-6.586-6.367-8.782-16.027-5.489-24.592 3.293-8.561 11.416-14.268 20.418-14.488h209.009v-87.819h-209.009c-12.075 0-21.955-9.88-21.955-21.954 0-12.077 9.88-21.957 21.955-21.957h209.009v-92.21h-209.009c-12.075 0-21.955-9.88-21.955-21.954s9.88-21.954 21.955-21.954h209.009v-90.016h-209.009c-12.075 0-21.955-9.88-21.955-21.954s9.88-21.954 21.955-21.954h811.007c4.391 0.22 8.561 1.536 12.074 4.17l169.053 110.651c10.097 6.588 12.952 20.421 6.364 30.518zM758.536 695.211c0.217 0 0.438 0.878 0.878 0.878h186.613l-121.629-114.165h-186.833l120.972 113.287zM237.111 581.924h-159.171l121.629 114.165h158.512l-119.872-112.409c-0.439-0.217-0.659 0.441-1.098-1.756zM500.128 436.807c-0.22-12.077-10.1-21.957-22.174-21.737s-21.954 10.1-21.734 22.174c0 19.98-16.247 36.225-36.228 36.225-0.217 0-0.438 0-0.438 0-19.98 0-36.225-16.465-36.004-36.445 0-19.977 16.465-36.225 36.442-36.004 44.349 0 80.136-35.787 80.136-80.136-0.438-35.784-24.151-66.96-58.399-77.061v-14.271c0-12.074-9.88-21.954-21.954-21.954-12.077 0-21.957 9.88-21.957 21.954v14.271c-34.248 10.1-57.958 41.277-58.179 77.061 0 12.077 9.88 21.957 21.954 21.957 12.077 0 21.957-9.88 21.957-21.957 0-19.977 16.244-36.225 36.225-36.225 19.977 0 36.225 16.247 36.225 36.225 0 19.98-16.247 36.225-36.225 36.225-35.787 0-67.184 23.713-77.061 58.182-12.077 42.372 12.511 86.941 55.104 99.015v14.271c0 12.077 9.88 21.954 21.957 21.954 12.074 0 21.954-9.877 21.954-21.954v-14.271c34.468-10.097 57.962-41.273 58.399-77.061 0-0.22 0-0.22 0-0.438z" />
<glyph unicode="&#xe94d;" glyph-name="ic_napthecao" d="M961.939 622.912v49.089c0 56.232-45.584 101.817-101.817 101.817h-727.267c-56.232 0-101.818-45.585-101.818-101.817v-49.089c0-5.021 4.071-9.092 9.091-9.092h912.721c5.018 0 9.089 4.071 9.089 9.092zM31.030 546.546v-310.908c0-56.23 45.585-101.817 101.817-101.817h727.266c56.233 0 101.82 45.587 101.82 101.817v310.908c0 5.021-4.071 9.092-9.092 9.092h-912.72c-5.020 0-9.091-4.071-9.091-9.092zM263.756 308.367c0-16.067-13.025-29.091-29.091-29.091h-29.091c-16.065 0-29.091 13.023-29.091 29.091v29.091c0 16.064 13.025 29.088 29.091 29.088h29.091c16.065 0 29.091-13.023 29.091-29.088v-29.091z" />
<glyph unicode="&#xe94e;" glyph-name="ic_paywin" d="M1018.179 525.346c-8.049 53.17-24.151 104.042-48.569 152.081 0 0-3.627 8.405-6.284 11.944-4.158 7.785-8.403 15.482-13.005 23.091-38.217 62.637-87.319 114.922-147.745 156.857-54.939 38.131-115.098 64.318-180.212 78.738-60.425 13.27-121.471 15.482-182.868 6.635-58.833-8.405-114.48-26.276-166.854-54.144-60.513-32.115-112.622-74.757-156.238-127.751-46.801-56.886-79.977-120.938-99.086-191.979-15.394-57.065-20.348-115.188-15.571-174.288 5.043-61.487 20.437-120.053 46.624-175.877 30.788-65.645 73.695-121.999 128.193-169.509 8.935-7.786 18.313-15.040 27.956-22.913 46.977 63.345 91.743 126.334 133.591 192.068-48.483 13.712-94.045 31.142-136.422 57.152 0.973 0.794 1.239 1.061 1.416 1.061 4.777-1.769 9.643-3.627 14.421-5.396 50.693-18.845 102.979-29.814 156.857-34.593 57.595-5.129 114.747-2.476 171.632 7.522 53.17 9.287 104.305 25.389 152.17 50.868 36.892 19.642 70.156 43.97 97.227 76.35 27.955 33.441 42.996 71.571 43.262 115.188 0.177 30.258-10.175 57.772-25.479 83.251-27.428 45.562-68.301 76.614-114.303 101.297-51.932 27.78-107.582 44.854-165.618 53.17-29.283 4.246-58.92 6.37-88.557 7.52-43.526 1.681-86.789-2.035-129.697-9.997-50.958-9.378-99.97-24.595-146.063-48.481-2.742-1.416-5.662-2.566-8.581-3.804 21.763 19.021 45.827 34.061 71.307 46.801 66.176 33.088 136.508 51.578 209.851 59.009 60.335 6.105 120.494 4.866 180.565-4.423 71.661-11.147 139.782-32.645 202.597-69.449 33.885-19.906 64.406-43.881 90.239-73.697 0 0 3.981-4.512 7.519-9.2 1.241-1.946 2.566-3.891 3.981-5.75 0.090-0.177 0.267-0.354 0.354-0.531 4.425-6.281 9.027-12.474 13.008-19.022 26.273-43.086 36.979-89.442 28.042-139.515-6.811-37.776-23.974-70.777-48.038-100.414 0 0-5.219-6.634-7.962-9.554-0.354-0.354-0.707-0.621-0.971-0.974l-0.090-0.087c-0.087-0.090-0.177-0.177-0.267-0.267-9.024-8.847-17.517-18.224-26.981-26.453-51.048-44.501-110.766-72.986-174.995-92.449-40.96-12.387-82.807-20.173-125.449-24.154-54.499-5.042-108.73-4.245-163.049 2.83-3.187 0.444-7.875-1.238-9.998-3.627-29.637-33.088-58.036-67.236-88.47-99.527-38.219-40.696-77.411-80.685-117.399-119.699-26.629-26.010-9.666-11.906-37.357-36.765-6.901-6.104-13.713-12.297-20.525-18.491 2.566 0 4.335 0.797 6.016 1.859 42.746 22.522 52.22 33.721 107.69 59.057 3.273 2.126 5.397 2.479 9.113 0.711 21.852-10.265 43.616-21.057 66.088-29.727 46.977-18.137 95.989-28.045 146.33-30.788 75.993-4.245 149.69 7.168 220.554 35.477 64.053 25.569 120.938 62.902 170.217 111.65 49.453 48.922 87.319 105.72 113.773 170.127 0.177 0.441 0.354 0.884 0.531 1.238 6.014 14.156 11.59 31.85 12.915 36.008 9.2 28.399 15.661 57.415 19.729 87.056 6.724 49.012 6.284 97.935-1.061 146.68zM263.354 634.874c40.784 14.333 82.367 25.744 125.449 30.433 39.548 4.335 79.093 4.512 116.516-11.678 41.671-18.048 65.201-50.518 71.661-95.195 6.191-42.996-5.396-83.248-21.411-122.352-21.942-53.614-52.817-102.27-86.699-149.073-5.753-7.962-11.236-16.012-17.43-23.62-2.036-2.566-5.84-5.486-8.76-5.396-26.010 0.618-52.019 1.769-77.942 2.92-1.679 0.087-3.274 0.794-6.014 1.415 1.769 3.184 3.184 5.84 4.689 8.493 33.351 54.939 64.76 110.94 88.027 171.101 10.262 26.54 18.224 53.788 21.321 82.277 4.425 40.96-15.481 75.906-53.524 92.185-31.85 13.712-65.468 17.076-99.44 14.51-32.38-2.476-64.583-7.522-97.052-11.503 13.27 5.046 26.806 10.705 40.608 15.484z" />
<glyph unicode="&#xe94f;" glyph-name="ic_back" horiz-adv-x="1536" d="M1536 533.332h-1209.172l305.92 305.92-120.748 120.748-512-512 512-512 120.748 120.749-305.92 305.919h1209.172v170.664z" />
<glyph unicode="&#xe950;" glyph-name="ic_search" d="M673.69 844.574c-153.901 153.901-404.387 153.901-558.289 0-153.868-153.935-153.868-404.388 0-558.321 137.053-137.024 350.507-151.699 504.308-44.704 3.236-15.315 10.643-29.926 22.556-41.837l224.128-224.134c32.659-32.595 85.44-32.595 117.933 0 32.634 32.634 32.634 85.408 0 117.939l-224.128 224.198c-11.84 11.808-26.49 19.247-41.805 22.484 107.066 153.835 92.384 367.255-44.704 504.375zM602.928 357.014c-114.9-114.902-301.898-114.902-416.765 0-114.834 114.9-114.834 301.864 0 416.765 114.867 114.867 301.864 114.867 416.765 0 114.902-114.9 114.902-301.864 0-416.765z" />
<glyph unicode="&#xe951;" glyph-name="ic_game_banca" d="M266.807 878.309c32.077-7.214 55.699-18.449 73.56-31.443 78.507 21.788 169.47 30.56 255.409 22.128-87.215 98.514-208.328 110.488-332.452 67.19-29.864-10.417-25.929-51.944 3.483-57.875zM139.431 336.585c59.592 52.011 127.5 63.906 201.84 35.362 69.049-27.371 181.972-59.699 284.948-76.288-7.424 11.678-7.488 11.755-7.996 12.625-27.776 48.282-88.691 173.572-54.558 293.951 20.113 70.941 69.257 128.015 146.061 169.642 0.627 0.352 0.512 0.288 12.979 7.108-93.722 35.46-200.213 40.591-298.662 24.751-89.094-14.252-135.564-36.728-179.202-65.568-212.171-140.056-272.811-329.976-233.705-489.392 0.004-0.017 0.010-0.030 0.014-0.047 45.838-186.675 237.48-303.556 245.616-308.442 4.569-2.743 9.813-4.279 15.69-4.279 8.404 0 61.169 1.775 97.796 44.915 32.371 38.131 41.585 94.886 27.377 168.695-3.599 18.718-23.804 29.547-41.557 21.773-0.496-0.213-50.264-21.666-110.956-19.388-72.915 2.743-130.239 37.854-170.601 104.414 10.409 18.099 32.236 51.648 64.917 80.166zM1023.612 356.527c-26.381 171.891-101.641 312.85-234.155 390.567-69.892-38.244-45.781-25.061-50.999-27.909-62.153-33.643-101.551-78.513-117.103-133.362-27.776-97.964 24.388-205.019 48.521-247.11l33.655-52.937c100.275-9.143 204.318-3.618 292.215 34.014 10.453 4.48 17.894 7.091 23.522 15.915 3.951 6.195 5.487 13.577 4.343 20.821zM800.294 513.801c-17.306 0-30.246 13.82-30.246 29.994 0 16.202 12.966 29.992 30.246 29.992 16.563 0 29.99-13.428 29.99-29.992 0-16.562-13.427-29.994-29.99-29.994z" />
<glyph unicode="&#xe952;" glyph-name="ic_game_dautri" d="M999.074 959.483c3.362 0.772 6.869 0.678 10.185-0.275s6.336-2.733 8.777-5.173c2.441-2.44 4.22-5.46 5.171-8.776 0.956-3.317 1.050-6.821 0.277-10.184l-80.742-265.261-208.93 208.928 265.263 80.742zM456.166-62.362c-2.419 0.87-4.604 2.291-6.374 4.16-3.721 3.665-5.837 8.653-5.888 13.871v166.507c8.299-3.008 17.173-4.083 25.946-3.145 8.777 0.939 17.225 3.866 24.695 8.559 79.612 48.649 154.406 104.772 223.373 167.607l-27.059-135.27c-0.704-3.789-2.547-7.27-5.278-9.988l-208.047-208.081c-2.726-2.765-6.221-4.646-10.035-5.402-3.81-0.751-7.757-0.341-11.332 1.182zM186.168 379.968h-166.585c-5.22 0.051-10.207 2.167-13.872 5.884-1.866 1.775-3.29 3.955-4.16 6.379-1.528 3.567-1.948 7.514-1.207 11.324s2.611 7.309 5.366 10.044l208.124 208.045c2.716 2.733 6.199 4.573 9.987 5.278l134.72 27.058c-63.572-68.658-119.749-143.81-167.606-224.215-4.364-7.454-7.052-15.774-7.875-24.371-0.823-8.602 0.237-17.276 3.107-25.425zM588.548 524.523c-30.652 30.651-30.652 80.345 0 110.996s80.346 30.65 110.997 0c30.647-30.65 30.647-80.345 0-110.996-30.652-30.652-80.346-30.652-110.997 0zM491.413 427.405c-3.678 3.678-8.67 5.747-13.871 5.747-5.205 0-10.193-2.069-13.875-5.747l-138.741-138.743-97.126 97.126c-3.086 3.076-5.061 7.087-5.615 11.405-0.554 4.322 0.344 8.704 2.554 12.454 54.982 92.403 121.257 177.602 197.293 253.627 76.016 76.046 161.217 142.321 253.625 197.293 3.755 2.21 8.137 3.109 12.454 2.555 4.322-0.554 8.333-2.53 11.405-5.616l221.999-221.996c3.102-3.128 5.065-7.21 5.568-11.588 0.499-4.378-0.486-8.797-2.803-12.547-55.155-92.122-121.306-177.196-196.996-253.351-76.634-75.153-161.638-141.261-253.355-197.018-3.746-2.317-8.166-3.302-12.544-2.803-4.378 0.503-8.461 2.466-11.588 5.568l-97.126 97.126 138.743 138.743c1.826 1.822 3.273 3.985 4.258 6.37 0.99 2.381 1.498 4.932 1.498 7.514 0 2.577-0.508 5.129-1.498 7.514-0.986 2.381-2.432 4.544-4.258 6.366zM727.283 496.768c16.465 16.465 27.678 37.441 32.222 60.278 4.54 22.837 2.21 46.509-6.699 68.021-8.913 21.513-24 39.9-43.362 52.836-19.358 12.937-42.121 19.841-65.408 19.841-23.283 0-46.046-6.905-65.404-19.841-19.362-12.937-34.453-31.324-43.362-52.836s-11.243-45.184-6.699-68.021c4.544-22.837 15.757-43.813 32.222-60.278 22.097-22.042 52.032-34.423 83.243-34.423s61.15 12.382 83.247 34.423z" />
<glyph unicode="&#xe953;" glyph-name="ic_game_ingame" d="M477.035 785.999l-93.071 97.44c-11.068 11.592-25.99 18.178-42.014 18.544-16.058 0.38-31.23-5.528-42.818-16.598l-280.574-267.994c-11.59-11.070-18.176-25.99-18.542-42.014s5.528-31.23 16.598-42.816l181.384-189.901v323.338c0 66.168 53.832 120 120 120h159.037zM978.761 779.084l-376.094 95.37c-15.539 3.946-31.676 1.596-45.449-6.604s-23.526-21.272-27.465-36.804l-11.422-45.046h187.686c66.167 0 120-53.832 120-120v-597.012c6.353 1.353 12.51 3.742 18.253 7.159 13.769 8.201 23.526 21.269 27.465 36.804l150.434 593.225c8.132 32.070-11.341 64.776-43.409 72.908zM706.001 726h-388.001c-33.084 0-60-26.916-60-60v-612.001c0-33.084 26.916-59.998 60-59.998h388.001c33.084 0 59.998 26.914 59.998 59.998v612.001c0 33.084-26.914 60-59.998 60zM400 613.998c16.568 0 29.999-13.432 29.999-30s-13.431-30-29.999-30c-16.568 0-30 13.432-30 30s13.432 30 30 30zM512 218.001c-7.155 0-14.306 2.543-20.002 7.637l-89.458 80.026c-0.202 0.179-0.398 0.363-0.596 0.546-22.446 21.197-33.242 53.248-28.884 85.743 4.144 30.908 21.746 57.429 47.088 70.955 12.308 6.554 25.313 9.873 38.668 9.873 20.267 0 38.788-7.723 53.184-20.655 14.396 12.932 32.917 20.655 53.184 20.655 13.355 0 26.359-3.315 38.643-9.86 25.365-13.538 42.965-40.060 47.113-70.963 4.356-32.495-6.438-64.55-28.885-85.747-0.196-0.183-0.393-0.367-0.593-0.546l-89.459-80.021c-5.696-5.099-12.847-7.642-20.002-7.642zM624 106.005c-16.567 0-29.999 13.427-29.999 29.999 0 16.567 13.431 29.999 29.999 29.999s29.999-13.431 29.999-29.999c0-16.567-13.431-29.999-29.999-29.999z" />
</font>
</defs>
</svg>
